Результатов поиска: 14

Автор Сообщение

bot

Пост 23-Янв-2012 23:13

[Цитировать] 

Топик был перенесен из форума Temp в форум Наше кино (HD Video)

Pavel_77

Pavel_77

Пост 23-Янв-2012 22:44

[Цитировать] 

Замените скриншоты.
Откройте фильм в плеере Media Player Classiс
Окно просмотра не изменяйте.
Нажмите комбинацию клавиш Alt+I и сохраните полученную картинку. Это и будет скриншот. И так несколько раз :)
Далее как обычно

bot

Пост 23-Янв-2012 22:39

[Цитировать] 

Топик был перенесен из форума Фильмы 2011 (новинки) в форум Temp

Pavel_77

Владимир

Пост 23-Янв-2012 20:18

[Цитировать] 

Высоцкий. Спасибо, что живойСпасибо, что живой- Год выпуска: 2011
Жанр: драма, биография
Страна: россия
Режиссер: Петр Буслов
Продюссер: Анатолий Максимов, Константин Эрнст, Михаэль Шлихт
Сценарий: Никита Высоцкий
В ролях: Владимир Высоцкий, Оксана Акиньшина, Андрей Смоляков, Максим Леонидов, Андрей Панин, Владимир Ильин, Иван Ургант, Дмитрий Астрахан, Сергей Безруков, Сергей Шакуров, Алла Покровская-Высоцкий. Спасибо, что живой--Описание: Картина рассказывает об одном из наиболее драматичных периодов жизни Владимира Высоцкого. В конце 70-х Владимир Высоцкий - самый знаменитый человек в СССР, кумир миллионов. Но его силы на исходе. Он измотан, он больше не ощущает свой дар, он не может писать стихи…
Фильм основан на реальных событиях: в июле 1979 года во время гастролей в Узбекистане сердце Владимира Высоцкого остановилось
-Продолжительность: 02:12:08-Формат: MKV
Видео: Russian,7 973 Kbps,1280*544(2.35:1) at 23.976 fps,AVC 720р
Аудио: Russian,640 kbps,48.0 KHz,16 bits,6 channels,AC-3
Перевод: Не требуется-

Трейлер

-

Скриншоты

serokuz74

Пост 20-Дек-2011 20:35

[Цитировать] 

Вообще-то эта прога супер-проста в использовании... Открыл файл... нашёл кадр... снял скрин... Просто кто-то... что-то не знает... вот и всё!

ПИПЕЦ

Пост 20-Дек-2011 20:19

[Цитировать] 

AvsP
А эта штука разве не слишком для простого пользователя (несмотря на то,что она лучшая )

6to6

Пост 20-Дек-2011 11:46

[Цитировать] 

serokuz74, ок

serokuz74

Пост 20-Дек-2011 11:44

[Цитировать] 

Значит юзайте другие плееры, или для примера Snagit или AvsP (лучшее, что можно использовать для снятия скриншотов)
Зы... по правилам я просто должен сносить раздачи в темп, поэтому обращаюсь к Вам, чтобы исправить эту техн. проблему... Я могу объяснить, если возникнут вопросы...

6to6

Пост 20-Дек-2011 11:26

[Цитировать] 

serokuz74, а что там именно смотреть???скрины делал через MPC, обычно делаю через KMP но он с таким разрешением не хочет делать скрины...

bot

Пост 20-Дек-2011 08:53

[Цитировать] 

Топик был перенесен из форума Наше кино 2011 (новинки) в форум Наше кино (HD Video)

serokuz74

serokuz74

Пост 20-Дек-2011 08:51

[Цитировать] 

6to6, спасибо за релиз!
Скрины подправил, посмотрите настройки в плеере при снятии скриншотов!

6to6

Пост 20-Дек-2011 02:32

[Цитировать] 

2 дня- Год выпуска: 2011
Жанр: драма, комедия
Страна: Россия
Режиссер: Авдотья Смирнова
В ролях: Ксения Раппопорт, Фёдор Бондарчук, Ирина Розанова, Евгений Муравич, Геннадий Смирнов, Леся Кудряшова, Константин Шелестун---Описание: Петр Дроздов, высокопоставленный чиновник из Москвы, приезжает в провинциальный музей полузабытого классика русской литературы по просьбе губернатора области, который хочет отнять у музея земельные владения и построить на них новую резиденцию. И поначалу Дроздов поддерживает это решение, но знакомство с Машей, молодым литературоведом, работающей в музее заместителем директора, меняет его взгляд не только на эту проблему, но и вообще на всю его жизнь…
-Продолжительность: 01:29:30-Качество: BDRip 720р
Формат: MKV
Видео кодек: MPEG-4 AVC
Аудио кодек: AC3
Видео: 1280x544 (2,35:1), 25 fps ~5002 Kbps, 0.287 bit/pixel
Аудио: 48 kHz, AC3, 6 ch ~640 Kbps
Перевод: Не требуется--

Скриншоты



MediaInfo

Общее
Уникальный идентификатор : 208549416164166873624198634502842117244 (0x9CE528137F4BD8808F07BDE85F6A6C7C)
Полное имя : D:\Фильмы\2 dnja.2011.BDRip.(720p).mkv
Формат : Matroska
Версия формата : Version 2
Размер файла : 3,53 Гбайт
Продолжительность : 1 ч. 29 м.
Общий поток : 5638 Кбит/сек
Название фильма : 2days.BDRip.720i
Дата кодирования : UTC 2011-12-04 07:11:45
Программа кодирования : mkvmerge v5.0.0 ('Die Wahre Liebe') built on Sep 25 2011 20:33:49
Библиотека кодирования : libebml v1.2.2 + libmatroska v1.3.0
Видео
Идентификатор : 1
Формат : AVC
Формат/Информация : Advanced Video Codec
Профиль формата : High@L4.1
Параметр CABAC формата : Да
Параметр ReFrames формата : 12 кадров
Параметры GOP формата : M=1, N=6
Идентификатор кодека : V_MPEG4/ISO/AVC
Продолжительность : 1 ч. 29 м.
Битрейт : 5002 Кбит/сек
Ширина : 1280 пикс.
Высота : 544 пикс.
Соотношение сторон : 2,35:1
Частота кадров : 25,000 кадр/сек
Цветовое пространство : YUV
Подвыборка цветности : 4:2:0
Битовая глубина : 8 бит
Тип развёртки : Прогрессивная
Бит/(Пиксели*Кадры) : 0.287
Размер потока : 3,06 Гбайт (87%)
Заголовок : 2days.BDRip.720i
Библиотека кодирования : x264 core 119 r2106 07efeb4
Настройки программы : cabac=1 / ref=12 / deblock=1:-3:-3 / analyse=0x3:0x133 / me=umh / subme=9 / psy=1 / psy_rd=1.00:0.20 / mixed_ref=1 / me_range=32 / chroma_me=1 / trellis=1 / 8x8dct=1 / cqm=0 / deadzone=21,11 / fast_pskip=0 / chroma_qp_offset=-3 / threads=6 / sliced_threads=0 / nr=0 / decimate=1 / interlaced=0 / bluray_compat=0 / constrained_intra=0 / bframes=5 / b_pyramid=2 / b_adapt=2 / b_bias=0 / direct=3 / weightb=1 / open_gop=0 / weightp=2 / keyint=250 / keyint_min=25 / scenecut=40 / intra_refresh=0 / rc_lookahead=50 / rc=2pass / mbtree=1 / bitrate=5002 / ratetol=1.0 / qcomp=0.70 / qpmin=10 / qpmax=69 / qpstep=4 / cplxblur=20.0 / qblur=0.5 / ip_ratio=1.40 / aq=1:1.00
Язык : Russian
Аудио
Идентификатор : 2
Формат : AC-3
Формат/Информация : Audio Coding 3
Расширение режима : CM (complete main)
Идентификатор кодека : A_AC3
Продолжительность : 1 ч. 29 м.
Вид битрейта : Постоянный
Битрейт : 640 Кбит/сек
Каналы : 6 каналов
Расположение каналов : Front: L C R, Side: L R, LFE
Частота : 48,0 КГц
Битовая глубина : 16 бит
Метод сжатия : С потерями
Размер потока : 411 Мбайт (11%)
Заголовок : AC3, 640 kb/s (6 ch)
Язык : Russian

ПИПЕЦ

Пост 09-Дек-2011 17:59

[Цитировать] 

Мне кажется. или на постере девушка лошадь?

Kalrel

Пост 09-Дек-2011 17:09

[Цитировать] 

Раздолбай«В жизни так бывает...»- Год выпуска: 2011
Жанр: боевик, комедия
Страна: Россия
Режиссер: Валерий Ибрагимов
Продюссер: Николай Кудряшов, Олег Сидоров
Сценарий: Георгий Гашокин
В ролях: Николай Кудряшов, Юлия Куваева, Олег Сидоров, Филипп Величко, Евгений Савчук, Валерий Ибрагимов, Петр Капица, Николай Калмыков, Евгений Маканов, Сергей Куваев- -Описание: Она владелица собственного бизнеса, амбициозна, самодостаточна и не замужем. Ее компания участвует в тендере за лакомый кусок земли. Столкнувшись с конкурентами, она ищет себе надежную охрану. Он водитель и охранник, хороший парень, но ему нельзя доверить никаких поручений, потому что главный герой... раздолбай. В разгар перепетий когда угрожает опасность именно он приходит ей на помощь.-Продолжительность: 81 мин. / 01:21-Качество: WEBRip
Формат: AVI
Видео кодек: Другой MPEG4
Аудио кодек: AAC
Видео: MPEG-4 AVC, 1280x720, 1096 kbps
Аудио: AAC, 152 kbps, 2 ch-

Трейлер

-

Скриншоты



 

Текущее время: Сегодня 03:47

Часовой пояс: GMT + 4

!