Результатов поиска: 3

Автор Сообщение

6to6

Пост 07-Дек-2011 10:42

[Цитировать] 

bs
Спасибо ! ay

SNAKE

Пост 07-Дек-2011 09:03

[Цитировать] 

Спасибо ! ay

6to6

Пост 07-Дек-2011 01:40

[Цитировать] 

30 Seconds To Mars "Live In Malaysia"- Год выпуска: 2011
Жанр: Alternative-Rock---Описание: Поклонникам команды 30 Seconds To Mars, еще одно потрясающее их выступление , на этот раз в Малайзии-Продолжительность: 00:45:10-Доп. информация: 30 Seconds to Mars— американская рок-группа из Лос-Анджелеса, штат Калифорния, исполняющая альтернативный рок. Основана в 1998 году братьями Джаредом и Шенноном Лето. Название группы было взято участниками из статьи бывшего гарвардского профессора, где шла речь о технологическом прогрессе, в результате которого человечество в буквальном смысле слова окажется вскоре «в тридцати секундах от Марса». Интересно отметить, что даже со скоростью света минимальное расстояние от Земли до Марса (во время противостояния) нельзя преодолеть быстрее, чем за 3 минуты.-

Треклист

01.Escape
02.A Beautiful Lie
03.Attack
04.This Is War
05.100 Suns
06.Vox Populi
07.Hurricane
08.The Kill
09.Closer to the Edge
10.Kings and Queens

MediaInfo

Общее
Уникальный идентификатор : 184520410547655224294257795447205763663 (0x8AD156A18AC198E2A31E5E2A17419A4F)
Полное имя : D:\Фильмы\30 Seconds To Mars - Live In Malaysia 2011.mkv
Формат : Matroska
Версия формата : Version 2
Размер файла : 1,49 Гбайт
Продолжительность : 45 м.
Общий поток : 4713 Кбит/сек
Дата кодирования : UTC 2011-09-27 16:37:38
Программа кодирования : mkvmerge v3.3.0 ('Language') сборка от May 14 2010 17:11:50
Библиотека кодирования : libebml v0.8.0 + libmatroska v0.9.0
Видео
Идентификатор : 1
Формат : AVC
Формат/Информация : Advanced Video Codec
Профиль формата : High@L4.1
Параметр CABAC формата : Да
Параметр ReFrames формата : 3 кадра
Идентификатор кодека : V_MPEG4/ISO/AVC
Продолжительность : 45 м.
Битрейт : 4235 Кбит/сек
Ширина : 1280 пикс.
Высота : 720 пикс.
Соотношение сторон : 16:9
Частота кадров : 25,000 кадр/сек
Частота кадров в оригинале : 50,000 кадр/сек
Цветовое пространство : YUV
Подвыборка цветности : 4:2:0
Битовая глубина : 8 бит
Тип развёртки : Прогрессивная
Бит/(Пиксели*Кадры) : 0.184
Размер потока : 1,34 Гбайт (90%)
Аудио
Идентификатор : 2
Формат : AC-3
Формат/Информация : Audio Coding 3
Расширение режима : CM (complete main)
Идентификатор кодека : A_AC3
Продолжительность : 45 м.
Вид битрейта : Постоянный
Битрейт : 384 Кбит/сек
Каналы : 6 каналов
Расположение каналов : Front: L C R, Side: L R, LFE
Частота : 48,0 КГц
Битовая глубина : 16 бит
Метод сжатия : С потерями
Задержка видео : 24 мс.
Размер потока : 124 Мбайт (8%)
-

Скриншоты



-Качество: HDTVRip
Формат: MKV
Видео: H.264 1280x720 16:9 4235kbps 25.000fps
Аудио: Dolby AC3 384kbps 48kHz 6ch.
 

Текущее время: Сегодня 02:30

Часовой пояс: GMT + 4

!