[Henshin] Макросс Плюс / Macross Plus (Сёдзи Кавамори) [1994 г., Боевик / Фантастика / Меха / Приключения]

Ответить на тему
Статистика раздачи
Нет
 
 
 
 
Автор Сообщение

Kalrel

Стаж: 10 лет

Сообщений: 3429

Репутация: 50.1
голосов: 75

Торрент-статистика

Пост 17-Янв-2010 19:27

[Цитировать] 

Макросс Плюс / Macross Plus
Год выпуска: 1994
Страна: Япония
Студия: Triangle Staff
Жанр: Боевик / Фантастика / Меха / Приключения
Продолжительность: 4 эпизода по 35 минут. Также в релизе полнометражная версия
Перевод: Отсутствует

Релиз
:
Режиссер: Кавамори Сёдзи
Сэйю:
Mako Hyoudou as Sharon Apple, Rica Fukami as Myung Fang Lone, Takumi Yamazaki as Isamu Alva Dyson, Unshou Ishizuka as Guld Goa Bowman, Banjou Ginga as Raymond Marley, Kenji Utsumi as Col. Millard Johnson, Kôichi Kitamura as General Gomez, Megumi Hayashibara as Lucy Macmillan, Sho Hayami as Marge Gueldoa, Tomohiro Nishimura as Yang Neumann, Norio Wakamoto as Dr. Worth (ep 2), Urara Takano as Kate Masseau
Описание: 2040 год, планета Эдем. Пилот-сорвиголова Исаму Дайсон переводится на испытания нового истребителя и сталкивается со старым соперником Галдом Боуманом – тот пилотирует в конкурирующем проекте. Появление Мьюн, их бывшей девушки, распаляет давний конфликт. Тем временем на планете стартует долгожданный концерт виртуальной суперзвезды Шэрон Эппл...
Развитие идей сериала «Макросс» (у нас известен как первая часть эпопеи «Роботек») вдохнуло в середине 1990-х новую жизнь в жанр научно-фантастических приключений. Динамичный дизайн техники, драматические персонажи и выдающаяся музыка композитора Йоко Канно («Ковбой Бибоп») – вот что делает этот четырёхсерийный цикл по-настоящему выдающимся.
Источник: R2DVD
Качество: DVDRip
Формат: MKV
Видео кодек: H.26x
Аудио кодек: AC3
Видео: 688x448

Параметры:

General
[Henshin]_Macross_Plus_ova_01_(x264_688x448_AC3).mkv
Format : Matroska
File size : 481 MiB
Duration : 38mn 55s
Overall bit rate : 1 727 Kbps
Encoded date : UTC 2009-01-06 15:02:06
Writing application : mkvmerge v2.4.1 ('Use Me') built on Dec 5 2008 18:30:05
Writing library : libebml v0.7.7 + libmatroska v0.8.1
Video
ID : 1
Format : AVC
Format/Info : Advanced Video Codec
Format profile : High@L3.1
Format settings, CABAC : Yes
Format settings, ReFrames : 14 frames
Muxing mode : Container profile=Unknown@3.1
Codec ID : V_MPEG4/ISO/AVC
Duration : 38mn 53s
Bit rate : 1 469 Kbps
Nominal bit rate : 1 500 Kbps
Width : 688 pixels
Height : 448 pixels
Display aspect ratio : 1.371
Original display aspect ratio : 1.536
Frame rate : 23.976 fps
Resolution : 24 bits
Colorimetry : 4:2:0
Scan type : Progressive
Bits/(Pixel*Frame) : 0.199
Stream size : 409 MiB (85%)
Title : マクロスプラス - OVA I
Writing library : x264 core 65 r1016 dbc5ef0
Encoding settings : cabac=1 / ref=14 / deblock=1:1:1 / analyse=0x3:0x113 / me=umh / subme=9 / psy_rd=1.0:0.0 / mixed_ref=1 / me_range=16 / chroma_me=1 / trellis=2 / 8x8dct=1 / cqm=0 / deadzone=21,11 / chroma_qp_offset=-2 / threads=3 / nr=0 / decimate=0 / mbaff=0 / bframes=16 / b_pyramid=1 / b_adapt=1 / b_bias=0 / direct=3 / wpredb=1 / keyint=250 / keyint_min=25 / scenecut=40(pre) / rc=2pass / bitrate=1500 / ratetol=1.0 / qcomp=0.60 / qpmin=10 / qpmax=51 / qpstep=4 / cplxblur=20.0 / qblur=0.5 / ip_ratio=1.40 / pb_ratio=1.30 / aq=1:1.00
Language : Japanese
Audio
ID : 2
Format : AC-3
Format/Info : Audio Coding 3
Codec ID : A_AC3
Duration : 38mn 55s
Bit rate mode : Constant
Bit rate : 224 Kbps
Channel(s) : 2 channels
Channel positions : L R
Sampling rate : 48.0 KHz
Stream size : 62.4 MiB (13%)
Title : Dolby AC3 2ch
Language : Japanese
Скриншоты:

[Профиль]  [ЛС] 

Staffa kar Terma

Стаж: 9 лет 2 месяца

Сообщений: 214

Откуда: От туда

Провайдер: 1

Репутация: 0

Торрент-статистика

Пост 28-Сен-2010 00:37 (спустя 8 месяцев 10 дней)

[Цитировать] 

так это что можно качать эпизоды или только фильм? они равнозначны? вернее одно и тоже? и что смотреть первым это и ли макросс ова?

_________________
[Профиль]  [ЛС] 

Kalrel

Стаж: 10 лет

Сообщений: 3429

Репутация: 50.1
голосов: 75

Торрент-статистика

Пост 28-Сен-2010 10:13 (спустя 9 часов)

[Цитировать] 

Saffa kar Terma
Фильм это компиляция сокращенных эпизодов с выкинутыми моментами. ОВАшек "Макросс" нет в природе :)
[Профиль]  [ЛС] 

Staffa kar Terma

Стаж: 9 лет 2 месяца

Сообщений: 214

Откуда: От туда

Провайдер: 1

Репутация: 0

Торрент-статистика

Пост 28-Сен-2010 11:29 (спустя 1 час 16 минут)

[Цитировать] 

Saffa kar Terma
Фильм это компиляция сокращенных эпизодов с выкинутыми моментами. ОВАшек "Макросс" нет в природе :)
Макросс Зеро OVA / Macross Zero OAV твой же релиз, порядок нельзя ли выложить? нашел на другом трекере еще кучу макроссов и чуток подрастерялся :)

_________________
[Профиль]  [ЛС] 

Kalrel

Стаж: 10 лет

Сообщений: 3429

Репутация: 50.1
голосов: 75

Торрент-статистика

Пост 28-Сен-2010 11:43 (спустя 13 минут)

[Цитировать] 

Saffa kar Terma
"Макросс" и "Макросс Зеро" все-таки разные названия. Не так ли? ;)
Хронологию выпуска смотреть тут
Но на пальцах если по хронологии вселенной Макросс, то Зеро это события ДО оригинального Макросса, а Плюс - после.
[Профиль]  [ЛС] 
Показать сообщения:    
Ответить на тему

Текущее время: Сегодня 18:15

Часовой пояс: GMT + 4



Вы не можете начинать темы
Вы не можете отвечать на сообщения
Вы не можете редактировать свои сообщения
Вы не можете удалять свои сообщения
Вы не можете голосовать в опросах
Вы не можете прикреплять файлы к сообщениям
Вы можете скачивать файлы
!