[Henshin] Коллекция фильмов студии Гибли (ремастер) / Ghibli (R2 DVDRip)

Ответить на тему
Статистика раздачи
Нет
 
 
 
 
Автор Сообщение

Kalrel

Стаж: 10 лет

Сообщений: 3429

Репутация: 50.1
голосов: 75

Торрент-статистика

Пост 27-Дек-2009 17:43

[Цитировать] 

Коллекция фильмов студии Гибли (ремастер) / Ghibli (R2 DVDRip)
Страна: Япония
Студия: Ghibli
Перевод: внешние (вложенные в контейнер) официальные английские субтитры

Релиз
:
Навсикая из Долины Ветров / Kaze no Tani no Nausicaa / Nausicaa of the Valley of Wind
Жанр: приключения, фэнтези, драма
Тип: полнометражный фильм, 116 мин.
Премьера: 11.03.1984
Режиссёр: Миядзаки Хаяо

Описание:

В будущем человечество, столетиями безоглядно эксплуатировавшее природу, пало жертвой своей гордыни. Землю постигла ужасная экологическая катастрофа, процветающие когда-то промышленные цивилизации обратились в прах, а поверхность планеты покрыло гигантское море Леса, испускающее в атмосферу ядовитые споры своих растений. Оставшимся в живых людям приходится жить в тени Леса и его чудовищных насекомообразных обитателей, пытаясь не допустить распостранения вредоносной растительности. Мирная Долина Ветров - одно из царств, образовавшихся на руинах прежних государств. Жители Долины обожают своего доброго правителя и его дочь Навсикаю, необычную девочку, находящую общий язык с исполинскими насекомыми Леса, странными порождениями нарушенной экосистемы. Но безмятежное существование Долины Ветров нарушается, когда маленькая страна становится пешкой в играх крупных воинственных соседей, сражающихся за остатки драгоценных природных ресурсов планеты. Тем не менее, скрытому потенциалу Навсикаи ещё предстоит раскрыться, и юной принцессе, возможно, удастся изменить судьбы мира...

Параметры рипа:

General
Complete name : [Henshin]_Kaze_no_Tani_no_Nausicaa_(x264_688x448_AC3).mkv
Format : Matroska
File size : 1.61 GiB
Duration : 1h 57mn
Overall bit rate : 1 973 Kbps
Encoded date : UTC 2008-12-08 20:51:08
Writing application : mkvmerge v2.4.0 ('Fumbling Towards Ecstasy') built on Oct 11 2008 20:13:15
Writing library : libebml v0.7.7 + libmatroska v0.8.1
Video
ID : 1
Format : AVC
Format/Info : Advanced Video Codec
Width : 688 pixels
Height : 448 pixels
Display aspect ratio : 16:9
Audio #1
ID : 2
Format : AC-3
Format/Info : Audio Coding 3
Codec ID : A_AC3
Duration : 1h 57mn
Bit rate mode : Constant
Bit rate : 384 Kbps
Channel(s) : 2 channels
Channel positions : L R
Sampling rate : 48.0 KHz
Stream size : 321 MiB (19%)
Title : Dolby AC3 2ch
Language : Japanese
Audio #2
ID : 3
Format : Vorbis
Format settings, Floor : 1
Codec ID : A_VORBIS
Duration : 1h 57mn
Bit rate mode : Constant
Bit rate : 96.0 Kbps
Channel(s) : 2 channels
Sampling rate : 48.0 KHz
Resolution : 16 bits
Stream size : 80.3 MiB (5%)
Title : Vorbis 2ch Commentary
Writing library : aoTuV Beta 5 (UTC 2006-10-24)
Language : Japanese

Скриншоты:



Небесный замок Лапута / Tenkuu no Shiro Laputa / Laputa: The Castle in the Sky

Описание:
Альтернативная реальность, напоминающая викторианскую Европу начала бурного развития научно-технического прогресса. Юный Падзу, подмастерье инженера, отвечающего за исправную работу подъёмника шахты, случайно знакомится с загадочной девочкой с косичкой, буквально упавшей с неба прямо ему в объятия. Оказывется, за незнакомкой гонятся по пятам воздушные пираты, армия и правительственные агенты, пытаясь заполучить хранящийся у неё Летающий Камень, который является ключом к мифическому летающему острову, некогда принадлежащему давно погибшей древней цивилизации. Так начинаются увлекательные приключения двух детей, в ходе которых они открывают тайну Небесного замка Лапуты...
Производство: Япония
Жанр: фэнтези, паропанк, приключения, романтика
Тип: полнометражный фильм, 124 мин.
Премьера: 02.08.1986
Режиссёр: Миядзаки Хаяо

Параметры рипа:

General
Complete name : [Henshin]_Tenkuu_no_Shiro_Laputa_(x264_688x464_AC3).mkv
Format : Matroska
File size : 1.70 GiB
Duration : 2h 4mn
Overall bit rate : 1 954 Kbps
Encoded date : UTC 2009-02-18 17:50:27
Writing application : mkvmerge v2.4.1 ('Use Me') built on Dec 5 2008 18:30:05
Writing library : libebml v0.7.7 + libmatroska v0.8.1
Video
ID : 1
Format : AVC
Format/Info : Advanced Video Codec
Format profile : High@L3.1
Format settings, CABAC : Yes
Format settings, ReFrames : 14 frames
Muxing mode : Container profile=Unknown@3.1
Codec ID : V_MPEG4/ISO/AVC
Duration : 2h 4mn
Bit rate : 1 467 Kbps
Nominal bit rate : 1 500 Kbps
Width : 688 pixels
Height : 464 pixels
Display aspect ratio : 16:9
Audio
ID : 2
Format : AC-3
Format/Info : Audio Coding 3
Format profile : Dolby Digital
Codec ID : A_AC3
Duration : 2h 4mn
Bit rate mode : Constant
Bit rate : 448 Kbps
Channel(s) : 2 channels
Channel positions : L R
Sampling rate : 48.0 KHz
Stream size : 399 MiB (23%)
Title : Dolby AC3 2ch
Language : Japanese

Скриншоты:



Могила светлячков / Hotaru no Haka/ Grave of the Fireflies


Описание:

Молодой парень по имени Сэйта и его маленькая сестренка Сэцуко остались одни - их родители погибли. Сэйта пытается наладить нормальную жизнь - но одна его ошибка ведет к ужасной катастрофе...
Фильм основан на автобиографическом романе Носаки. Послевоенные воспоминания не давали писателю жить, и он решил их описать. Книга "Могила светлячков" считается классикой японской литературы, посвящённой Второй мировой войне.
Производство: Япония
Жанр: драма, история, война
Тип: полнометражный фильм, 88 мин.
Премьера: 16.04.1988
Режиссёр: Такахата Исао

Параметры рипа:

General
Complete name : [Henshin]_Hotaru_no_Haka_(x264_720x480_AC3).mkv
Format : Matroska
File size : 1.08 GiB
Duration : 1h 28mn
Overall bit rate : 1 753 Kbps
Encoded date : UTC 2009-02-02 16:53:46
Writing application : mkvmerge v2.4.1 ('Use Me') built on Dec 5 2008 18:30:05
Writing library : libebml v0.7.7 + libmatroska v0.8.1
Video
ID : 1
Format : AVC
Format/Info : Advanced Video Codec
Format profile : High@L3.2
Format settings, CABAC : Yes
Format settings, ReFrames : 14 frames
Muxing mode : Container profile=Unknown@3.2
Codec ID : V_MPEG4/ISO/AVC
Duration : 1h 28mn
Bit rate : 1 270 Kbps
Nominal bit rate : 1 300 Kbps
Width : 720 pixels
Height : 480 pixels
Display aspect ratio : 16:9
Audio
ID : 2
Format : AC-3
Format/Info : Audio Coding 3
Codec ID : A_AC3
Duration : 1h 28mn
Bit rate mode : Constant
Bit rate : 448 Kbps
Channel(s) : 2 channels
Channel positions : L R
Sampling rate : 48.0 KHz
Video delay : 5s 880ms
Stream size : 283 MiB (26%)
Title : Dolby AC3 2ch
Language : Japanese

Скриншоты:


Мой сосед Тоторо / Tonari no Totoro / My Neighbor Totoro
Описание:
Япония, пятидесятые годы прошлого века. Переехав в деревню, две маленькие сестры Сацуки (старшая) и Мэй (младшая) глубоко внутри дерева обнаружили необыкновенный, чудесный мир, населённый Тоторо, очаровательными пушистыми созданиями, с которыми у девочек сразу же завязалась дружба. Одни из них большие, другие совсем крохотные, но у всех у них огромное, доброе сердце и магические способности совершать необыкновенные вещи, наподобие полётов над горами или взращивания огромного дерева за одну ночь! Но увидеть этих существ могут лишь дети, которые им приглянутся... Подружившись с сёстрами, Тоторо не только устраивают им воздушную экскурсию по своим владениям, но и помогают Мэй повидаться с лежащей в больнице мамой.
Производство: Япония
Жанр: приключения, комедия, фэнтези, драма
Тип: полнометражный фильм, 88 мин.
Премьера: 16.04.1988
Режиссёр: Миядзаки Хаяо

Параметры рипа:

General
Complete name :[Henshin]_Tonari_no_Totoro_(x264_688x448_AC3).mkv
Format : Matroska
File size : 1.18 GiB
Duration : 1h 26mn
Overall bit rate : 1 955 Kbps
Encoded date : UTC 2008-12-13 15:23:03
Writing application : mkvmerge v2.4.0 ('Fumbling Towards Ecstasy') built on Oct 11 2008 20:13:15
Writing library : libebml v0.7.7 + libmatroska v0.8.1
Video
ID : 1
Format : AVC
Format/Info : Advanced Video Codec
Format profile : High@L3.1
Format settings, CABAC : Yes
Format settings, ReFrames : 14 frames
Muxing mode : Container profile=Unknown@3.1
Codec ID : V_MPEG4/ISO/AVC
Duration : 1h 26mn
Bit rate : 1 468 Kbps
Nominal bit rate : 1 500 Kbps
Width : 688 pixels
Height : 448 pixels
Display aspect ratio : 16:9
Audio
ID : 2
Format : AC-3
Format/Info : Audio Coding 3
Format profile : Dolby Digital
Codec ID : A_AC3
Duration : 1h 26mn
Bit rate mode : Constant
Bit rate : 448 Kbps
Channel(s) : 2 channels
Channel positions : L R
Sampling rate : 48.0 KHz
Stream size : 277 MiB (23%)
Title : Dolby AC3 2ch
Language : Japanese

Скриншоты:


Ведьмина служба доставки / Majo no Takkyuubin / Kiki's Delivery Service
Описание:
По правилам жизни ведьм, каждая из них, достигнув возраста 13-ти лет, должна найти город, где нет нечистой силы, и прожить в нем ровно год. Молодая ведьма (язык не поворачивается назвать её девочкой - ведьма всё-таки) Кики и ее котенок Дзидзи находят такой приморский городок, где и знакомится с добрым пекарем, который помогает ей начать собственное дело - Экстренную Службу Доставки. Работа знакомит Кики с множеством различных людей, предоставляя возможность обрести новых друзей и совершить массу всевозможных проделок.
Производство: Япония
Жанр: приключения, комедия, драма, фэнтези
Тип: полнометражный фильм, 112 мин.
Премьера: 29.07.1989
Режиссёр: Миядзаки Хаяо

Параметры рипа:

General
Complete name :[Henshin]_Majo_no_Takkyuubin_(x264_688x448_AC3).mkv
Format : Matroska
File size : 1.41 GiB
Duration : 1h 43mn
Overall bit rate : 1 955 Kbps
Encoded date : UTC 2009-02-16 20:15:14
Writing application : mkvmerge v2.4.1 ('Use Me') built on Dec 5 2008 18:30:05
Writing library : libebml v0.7.7 + libmatroska v0.8.1
Video
ID : 1
Format : AVC
Format/Info : Advanced Video Codec
Format profile : High@L3.1
Format settings, CABAC : Yes
Format settings, ReFrames : 14 frames
Muxing mode : Container profile=Unknown@3.1
Codec ID : V_MPEG4/ISO/AVC
Duration : 1h 42mn
Bit rate : 1 468 Kbps
Nominal bit rate : 1 500 Kbps
Width : 688 pixels
Height : 448 pixels
Display aspect ratio : 16:9
Audio
ID : 2
Format : AC-3
Format/Info : Audio Coding 3
Format profile : Dolby Digital
Codec ID : A_AC3
Duration : 1h 43mn
Bit rate mode : Constant
Bit rate : 448 Kbps
Channel(s) : 2 channels
Channel positions : L R
Sampling rate : 48.0 KHz
Stream size : 330 MiB (23%)
Title : Dolby AC3 2ch
Language : Japanese

Скриншоты:


Сочащиеся воспоминания / Omohide Poro Poro / Only Yesterday
Описание:
Япония восьмидесятых годов прошлого века. Таэко - одинокая молодая женщина из Токио, типичная служащая в крупной компании, вертящаяся в бешеном ритме столичной жизни. Когда она отправилась в отпуск на ферму своей старшей замужней сестры, переехавшей к мужу в сельскую глубинку, и погрузилась в неспешные деревенские будни, на Таэко нахлынула волна ярких воспоминаний о школьной юности конца шестидесятых, казалось, давно стёртых в памяти. С удовольствием работая в поле на фоне чудесной природы в окружении доброжелательных фермеров, она то и дело переносится в то счастливое время, когда жизнь казалась простой и понятной. Тёплые воспоминания детской рукой словно направляют Таэко, помогая ей принять трудные и важные решения о её будущем...
Производство: Япония
Жанр: романтика, драма, школа
Тип: полнометражный фильм, 118 мин.
Премьера: 20.07.1991
Режиссёр: Такахата Исао

Параметры рипа:

General
Complete name :[Henshin]_Omohide_Poro_Poro_(x264_688x448_AC3).mkv
Format : Matroska
File size : 1.54 GiB
Duration : 1h 58mn
Overall bit rate : 1 856 Kbps
Encoded date : UTC 2008-12-24 16:46:00
Writing application : mkvmerge v2.4.1 ('Use Me') built on Dec 5 2008 18:30:05
Writing library : libebml v0.7.7 + libmatroska v0.8.1
Video
ID : 1
Format : AVC
Format/Info : Advanced Video Codec
Format profile : High@L3.1
Format settings, CABAC : Yes
Format settings, ReFrames : 14 frames
Muxing mode : Container profile=Unknown@3.1
Codec ID : V_MPEG4/ISO/AVC
Duration : 1h 58mn
Bit rate : 1 371 Kbps
Nominal bit rate : 1 400 Kbps
Width : 688 pixels
Height : 448 pixels
Display aspect ratio : 16:9
Audio
ID : 2
Format : AC-3
Format/Info : Audio Coding 3
Format profile : Dolby Digital
Codec ID : A_AC3
Duration : 1h 58mn
Bit rate mode : Constant
Bit rate : 448 Kbps
Channel(s) : 2 channels
Channel positions : L R
Sampling rate : 48.0 KHz
Stream size : 381 MiB (24%)
Title : Dolby AC3 2ch
Language : Japanese

Скриншоты:


Порко Россо / Kurenai no Buta / Porco Rosso
Описание:
Адриатика, двадцатые годы прошлого столетия. Итальянский пилот Марко Паготт храбро сражался в годы первой мировой войны. Однако после войны он разочаровался в военном деле, себе и людях, превратившись в самую настоящую свинью. В конце двадцатых, когда в Италии к власти пришли фашисты во главе с Муссолини, Марко, назвавший себя Порко Россо ("Малиновая свинья"), начал работать спасателем по найму в небе Адриатики. Его гидросамолет наводит ужас на воздушных пиратов, однако это не приносит Порко удовлетворения и душевного спокойствия...
Производство: Япония
Жанр: приключения, история, комедия, психология
Тип: полнометражный фильм, 91 мин.
Премьера: 18.07.1992
Режиссёр: Миядзаки Хаяо

Параметры рипа:

General
Complete name : [Henshin]_Kurenai_no_Buta_(x264_688x448_AC3).mkv
Format : Matroska
File size : 1.27 GiB
Duration : 1h 33mn
Overall bit rate : 1 955 Kbps
Encoded date : UTC 2008-12-27 07:32:49
Writing application : mkvmerge v2.4.1 ('Use Me') built on Dec 5 2008 18:30:05
Writing library : libebml v0.7.7 + libmatroska v0.8.1
Video
ID : 1
Format : AVC
Format/Info : Advanced Video Codec
Format profile : High@L3.1
Format settings, CABAC : Yes
Format settings, ReFrames : 14 frames
Muxing mode : Container profile=Unknown@3.1
Codec ID : V_MPEG4/ISO/AVC
Duration : 1h 33mn
Bit rate : 1 468 Kbps
Nominal bit rate : 1 500 Kbps
Width : 688 pixels
Height : 448 pixels
Display aspect ratio : 16:9
Audio
ID : 2
Format : AC-3
Format/Info : Audio Coding 3
Format profile : Dolby Digital
Codec ID : A_AC3
Duration : 1h 33mn
Bit rate mode : Constant
Bit rate : 448 Kbps
Channel(s) : 2 channels
Channel positions : L R
Sampling rate : 48.0 KHz
Stream size : 299 MiB (23%)
Title : Dolby AC3 2ch
Language : Japanese

Скриншоты:



Здесь слышен океан / Umi ga Kikoeru / I Can Hear the Sea

Описание:
Увлекательное повествование о том, как взрослеют школьники-подростки. Старшеклассники Таку и его друг Мацуо полны раздумий над своей будущей жизнью, когда красавица Рикако переводится в их провинциальную школу из Токио. Рикако - смышлёная, очаровательная и утончённая девушка, вынужденная поменять привычную ей столицу на тихий приморский городок. Возникает неизбежный любовный треугольник...
Производство: Япония
Жанр: романтика, драма, школа
Тип: полнометражный фильм, 82 мин.
Премьера: 05.05.1993
Режиссёр: Мотидзуки Томоми

Параметры рипа:

General
Complete name : [Henshin]_Umi_ga_Kikoeru_(x264_688x448_AC3).mkv
Format : Matroska
File size : 1 009 MiB
Duration : 1h 12mn
Overall bit rate : 1 956 Kbps
Encoded date : UTC 2009-02-19 07:45:57
Writing application : mkvmerge v2.4.1 ('Use Me') built on Dec 5 2008 18:30:05
Writing library : libebml v0.7.7 + libmatroska v0.8.1
Video
ID : 1
Format : AVC
Format/Info : Advanced Video Codec
Format profile : High@L3.1
Format settings, CABAC : Yes
Format settings, ReFrames : 14 frames
Muxing mode : Container profile=Unknown@3.1
Codec ID : V_MPEG4/ISO/AVC
Duration : 1h 12mn
Bit rate : 1 469 Kbps
Nominal bit rate : 1 500 Kbps
Width : 688 pixels
Height : 448 pixels
Display aspect ratio : 16:9
Audio
ID : 2
Format : AC-3
Format/Info : Audio Coding 3
Codec ID : A_AC3
Duration : 1h 12mn
Bit rate mode : Constant
Bit rate : 448 Kbps
Channel(s) : 2 channels
Channel positions : L R
Sampling rate : 48.0 KHz
Stream size : 231 MiB (23%)
Title : Dolby AC3 2ch
Language : Japanese

Скриншоты:


Война тануки в периоды Хэйсэй и Помпоко / Heisei Tanuki Gassen Ponpoko
Описание:
Современная Япония, западные окраины Токио. Люди застраивают леса и холмы, которые раньше принадлежали тануки - енотовидным собакам. Тануки начинают героическую, но обреченную войну за выживание. Для этого они возрождают древнее искусство превращения. С его помощью они могут превращаться даже в людей...
Пояснения:
Хэйсэй - период правления императора Акихито. Он начался в 1989 году.
Помпоко - период в истории тануки. Звук "пом-поко" тануки издают, когда стучат по своим наполненным животам.
Производство: Япония
Жанр: социальный фильм, драма, фэнтези
Тип: полнометражный фильм, 119 мин.
Премьера: 16.07.1994
Режиссёр: Такахата Исао

Параметры рипа:

General
Complete name : [Henshin]_Heisei_Tanuki_Gassen_Ponpoko_(x264_688x448_AC3).mkv
Format : Matroska
File size : 1.54 GiB
Duration : 1h 59mn
Overall bit rate : 1 856 Kbps
Encoded date : UTC 2009-02-03 18:56:03
Writing application : mkvmerge v2.4.1 ('Use Me') built on Dec 5 2008 18:30:05
Writing library : libebml v0.7.7 + libmatroska v0.8.1
Video
ID : 1
Format : AVC
Format/Info : Advanced Video Codec
Format profile : High@L3.1
Format settings, CABAC : Yes
Format settings, ReFrames : 14 frames
Muxing mode : Container profile=Unknown@3.1
Codec ID : V_MPEG4/ISO/AVC
Duration : 1h 59mn
Bit rate : 1 371 Kbps
Nominal bit rate : 1 400 Kbps
Width : 688 pixels
Height : 448 pixels
Display aspect ratio : 16:9
Audio
ID : 2
Format : AC-3
Format/Info : Audio Coding 3
Format profile : Dolby Digital
Codec ID : A_AC3
Duration : 1h 59mn
Bit rate mode : Constant
Bit rate : 448 Kbps
Channel(s) : 2 channels
Channel positions : L R
Sampling rate : 48.0 KHz
Stream size : 382 MiB (24%)
Title : Dolby AC3 2ch
Language : Japanese

Скриншоты:


Шёпот сердца / Mimi wo Sumaseba / Whisper of the Heart
Описание:
Школьница средних классов Сидзуку Цукисима обожает читать, «глотая» книги одну за другой. Однако какую бы книжку она не брала из школьной библиотеки, в формуляре прочитавших её прежде значится имя Сэйдзи Амасава. После знакомства с этим необычным пареньком, ставшем её первой любовью, Сидзуку узнаёт много нового и о себе самой, о своих целях в жизни - открытие, которое необратимо изменит её судьбу.
Производство: Япония
Жанр: романтика, драма, школа
Тип: полнометражный фильм, 111 мин.
Премьера: 15.07.1995
Режиссёр: Кондо Ёсифуми

Параметры рипа:

General
Complete name : [Henshin]_Mimi_wo_Sumaseba_(x264_688x448_AC3).mkv
Format : Matroska
File size : 1.44 GiB
Duration : 1h 50mn
Overall bit rate : 1 855 Kbps
Encoded date : UTC 2009-01-29 14:56:20
Writing application : mkvmerge v2.4.1 ('Use Me') built on Dec 5 2008 18:30:05
Writing library : libebml v0.7.7 + libmatroska v0.8.1
Video
ID : 1
Format : AVC
Format/Info : Advanced Video Codec
Format profile : High@L3.1
Format settings, CABAC : Yes
Format settings, ReFrames : 14 frames
Muxing mode : Container profile=Unknown@3.1
Codec ID : V_MPEG4/ISO/AVC
Duration : 1h 50mn
Bit rate : 1 370 Kbps
Nominal bit rate : 1 400 Kbps
Width : 688 pixels
Height : 448 pixels
Display aspect ratio : 16:9
Audio
ID : 2
Format : AC-3
Format/Info : Audio Coding 3
Codec ID : A_AC3
Duration : 1h 50mn
Bit rate mode : Constant
Bit rate : 448 Kbps
Channel(s) : 6 channels
Channel positions : Front: L C R, Surround: L R, LFE
Sampling rate : 48.0 KHz
Stream size : 355 MiB (24%)
Title : Dolby AC3 6ch
Language : Japanese

Скриншоты:


На старт! / On Your Mark
Описание:
Мир далёкого будущего. В футуристическом мегаполисе полицейский спецназ штурмует гнездо некой религиозной секты, забаррикадировавшейся в верхней части исполинского небоскрёба. Среди груд обломков и гор трупов два друга-полицейских обнаруживают прикованную к стене еле живую девушку-подростка с большими белыми крыльями за спиной. Поражённые удивительной находкой, они оказывают этому ангелу первую помощь и передают властям. Проходит время, но образ девушки с крыльями не оставляет приятелей. Узнав, что незнакомка содержится в закрытой научной лаборатории, друзья решают во что бы то ни стало вернуть её на свободу...
Производство: Япония
Жанр: драма, музыкальный, фантастика
Тип: музыкальный клип, 6:48 мин.
Премьера: 15.07.1995
Режиссёр: Миядзаки Хаяо

Параметры рипа:

General
Complete name : [Henshin]_On_Your_Mark_(x264_688x448_AC3).mkv
Format : Matroska
File size : 138 MiB
Duration : 6mn 48s
Overall bit rate : 2 842 Kbps
Encoded date : UTC 2009-02-14 08:01:56
Writing application : mkvmerge v2.4.1 ('Use Me') built on Dec 5 2008 18:30:05
Writing library : libebml v0.7.7 + libmatroska v0.8.1
Video
ID : 1
Format : AVC
Format/Info : Advanced Video Codec
Format profile : High@L3.1
Format settings, CABAC : Yes
Format settings, ReFrames : 14 frames
Muxing mode : Container profile=Unknown@3.1
Codec ID : V_MPEG4/ISO/AVC
Duration : 6mn 48s
Bit rate : 1 953 Kbps
Nominal bit rate : 2 000 Kbps
Width : 688 pixels
Height : 448 pixels
Display aspect ratio : 16:9
Audio #1
ID : 2
Format : AC-3
Format/Info : Audio Coding 3
Codec ID : A_AC3
Duration : 6mn 48s
Bit rate mode : Constant
Bit rate : 192 Kbps
Channel(s) : 2 channels
Channel positions : L R
Sampling rate : 48.0 KHz
Stream size : 9.35 MiB (7%)
Title : Dolby AC3 2ch
Language : Japanese
Audio #2
ID : 3
Format : AC-3
Format/Info : Audio Coding 3
Codec ID : A_AC3
Duration : 6mn 48s
Bit rate mode : Constant
Bit rate : 448 Kbps
Channel(s) : 6 channels
Channel positions : Front: L C R, Surround: L R, LFE
Sampling rate : 48.0 KHz
Stream size : 21.8 MiB (16%)
Title : Dolby AC3 6ch
Language : Japanese
Audio #3
ID : 4
Format : AC-3
Format/Info : Audio Coding 3
Codec ID : A_AC3
Duration : 6mn 48s
Bit rate mode : Constant
Bit rate : 192 Kbps
Channel(s) : 2 channels
Channel positions : L R
Sampling rate : 48.0 KHz
Video delay : 3s 600ms
Stream size : 9.35 MiB (7%)
Title : Dolby AC3 2ch
Language : English

Скриншоты:


Принцесса Мононокэ / Mononoke Hime / Princess Mononoke
Описание:
Средневековая Япония, середина XV века. В стране пылает междоусобная война. Молодой воин по имени Аситака из племени эмиси отправляется в лес великого божества Сисигами, чтобы очиститься от проклятия, перешедшее на него от обезумевшего Бога Кабанов. Произошло это, когда Аситака для спасения своей деревни вынужден был убить его. Необходимо торопиться, проклятье медленно, но верно убивает юного воина. На границе леса он находит поселение сталеваров, возглавляемое харизматичной Эбоси-годзэн. Вырубание леса для сталеваров – необходимый элемент производственного цикла. Им необходимо топливо. Благодаря производимому ими металлу и изготовляемому из него огнестрельному оружию они могут сохранить независимость от окружающих феодалов. Поселение Эбоси - прибежище прокаженных и беглых преступников. Людям противостоят разумные животные, населяющие леса, и их божества во главе с Богиней-волчицей и её воспитанницей - Сан, Принцессой-мононокэ ("мононокэ" по-японски - "разгневанный дух"). И те, и другие защищают свои интересы. И ни тем, ни другим просто некуда отступать. Третья сила в конфликте - шпионы императора, желающие использовать ситуацию, чтобы заполучить голову Сисигами, которая, по древней легенде, может дать бессмертие ее обладателю. Героизм и предательство, любовь и ненависть, извечная вражда и вновь зарождающееся доверие - в этом фильме есть всё.
Производство: Япония
Жанр: приключения, драма, фэнтези
Тип: полнометражный фильм, 135 мин.
Премьера: 12.07.1997
Режиссёр: Миядзаки Хаяо

Параметры рипа:

General
Complete name : [Henshin]_Mononoke_Hime_(x264_688x448_AC3).mkv
Format : Matroska
File size : 1.82 GiB
Duration : 2h 13mn
Overall bit rate : 1 956 Kbps
Encoded date : UTC 2009-02-16 18:39:11
Writing application : mkvmerge v2.4.1 ('Use Me') built on Dec 5 2008 18:30:05
Writing library : libebml v0.7.7 + libmatroska v0.8.1
Video
ID : 1
Format : AVC
Format/Info : Advanced Video Codec
Format profile : High@L3.1
Format settings, CABAC : Yes
Format settings, ReFrames : 14 frames
Muxing mode : Container profile=Unknown@3.1
Codec ID : V_MPEG4/ISO/AVC
Duration : 2h 13mn
Bit rate : 1 469 Kbps
Nominal bit rate : 1 500 Kbps
Width : 688 pixels
Height : 448 pixels
Display aspect ratio : 16:9
Audio
ID : 2
Format : AC-3
Format/Info : Audio Coding 3
Codec ID : A_AC3
Duration : 2h 13mn
Bit rate mode : Constant
Bit rate : 448 Kbps
Channel(s) : 6 channels
Channel positions : Front: L C R, Surround: L R, LFE
Sampling rate : 48.0 KHz
Stream size : 427 MiB (23%)
Title : Dolby AC3 6ch
Language : Japanese

Скриншоты:


Мои соседи - семья Ямада / Houhokekyo Tonari no Yamada-kun / My Neighbors the Yamadas
Описание:
«Чирик-чирик, наши соседи — семья Ямада» или просто «Наши соседи — семья Ямада» — анимационный фильм о японцах, для японцев и сделан японцами. Странно видеть, как такие киты, вроде Диснея, берутся утверждать, что эта анимация может быть интересна на западе. Если будущая работа «Ghibli» — «Унесенные призраками» и будет ориентирована на запад, то «Ямаду» в такую категорию включить просто рука не поднимается. А дело в том, что на протяжении всего фильма нам показывают японскую культуру, японский быт, отношения в обычной японской семье, суси, палочки, сакуру, но никак не «мехи», не космические приключения, не демонов, в конце концов. Этот фильм не подходит ни под один известный жанр. Он состоит из множества нарезков, соединенных в единый коллаж мастерством Такахаты и приправленный мудрыми хокку японской культуры. Писать про этот фильм непросто, так как он и сам непростой. Например, в нем нет сюжета, и все действие завязано на пяти героях, а кроме них увидеть кого-либо еще почти невозможно. Даже если и встречается побочный персонаж, то он носит невероятно малую эпизодическую роль, и о нем забываешь уже на следующем кадре. Но зато над пятью основными героями авторы старались, по-видимому, долго. В результате этих стараний к концу фильма мы и понимаем их поступки, чувства, а порой и мысли.
Фильм имеет очень оригинальную прорисовку. Доминирующий цвет — белый, а на фоне этого цвета уже и рисуется весь фильм. Стилистика такая, что задаешься вопросом, не доверил ли Такахата свой фильм детсаду. Стиль изображения получился настолько несерьезным и детским, насколько он мог быть не серьезным и детским. Стоит увидеть несколько кадров из фильма, чтобы понять, что такого мы не видели. На самом-то деле Такахата просто решил поэкспериментировать с компьютером, а что из этого вышло, оценивать, как обычно, предстоит нам.
«Наши соседи — семья Ямада» не содержит сюжетной линии, и его можно назвать учебником по поведению, энциклопедией японской культуры и жизни. Интересно будет смотреть такой учебник? Тогда в путь!
Производство: Япония
Жанр: комедия, повседневность
Тип: полнометражный фильм, 104 мин.
Премьера: 17.08.1999
Режиссёр: Такахата Исао

Параметры рипа:

General
Complete name : [Henshin]_Houhokekyo_Tonari_no_Yamada-kun_(x264_688x448_AC3).mkv
Format : Matroska
File size : 1.05 GiB
Duration : 1h 43mn
Overall bit rate : 1 455 Kbps
Encoded date : UTC 2009-02-13 19:39:48
Writing application : mkvmerge v2.4.1 ('Use Me') built on Dec 5 2008 18:30:05
Writing library : libebml v0.7.7 + libmatroska v0.8.1
Video
ID : 1
Format : AVC
Format/Info : Advanced Video Codec
Format profile : High@L3.1
Format settings, CABAC : Yes
Format settings, ReFrames : 14 frames
Muxing mode : Container profile=Unknown@3.1
Codec ID : V_MPEG4/ISO/AVC
Duration : 1h 43mn
Bit rate : 978 Kbps
Nominal bit rate : 1 000 Kbps
Width : 688 pixels
Height : 448 pixels
Display aspect ratio : 16:9
Audio
ID : 2
Format : AC-3
Format/Info : Audio Coding 3
Codec ID : A_AC3
Duration : 1h 43mn
Bit rate mode : Constant
Bit rate : 448 Kbps
Channel(s) : 6 channels
Channel positions : Front: L C R, Surround: L R, LFE
Sampling rate : 48.0 KHz
Stream size : 332 MiB (31%)
Title : Dolby AC3 6ch
Language : Japanese

Скриншоты:


Унесённые призраками / Sen to Chihiro no Kamikakushi / Spirited Away
Описание:
Маленькая Тихиро вместе с мамой и папой переезжают в новый дом. Заблудившись по дороге, они оказываются в странном пустынном городе, где их ждет великолепный пир. Родители с жадностью набрасываются на еду и к ужасу девочки превращаются в свиней, став пленниками злой колдуньи Юбабы, властительницы таинственного мира древних богов и могущественных духов. Теперь, оказавшись одна среди магических существ и загадочных видений, отважная Тихиро должна придумать, как избавить своих родителей от чар коварной старухи и спастись из пугающего царства призраков...
Производство: Япония
Жанр: приключения, комедия, драма, фэнтези
Тип: полнометражный фильм, 125 мин.
Премьера: 20.07.2001
Режиссёр:Миядзаки Хаяо

Параметры рипа:

General
Complete name :[Henshin]_Sen_to_Chihiro_no_Kamikakushi_(x264_688x448_DTS).mkv
Format : Matroska
File size : 1.88 GiB
Duration : 2h 4mn
Overall bit rate : 2 162 Kbps
Encoded date : UTC 2009-02-14 09:34:56
Writing application : mkvmerge v2.4.1 ('Use Me') built on Dec 5 2008 18:30:05
Writing library : libebml v0.7.7 + libmatroska v0.8.1
Video
ID : 1
Format : AVC
Format/Info : Advanced Video Codec
Format profile : High@L3.1
Format settings, CABAC : Yes
Format settings, ReFrames : 14 frames
Muxing mode : Container profile=Unknown@3.1
Codec ID : V_MPEG4/ISO/AVC
Duration : 2h 4mn
Bit rate : 1 364 Kbps
Nominal bit rate : 1 400 Kbps
Width : 688 pixels
Height : 448 pixels
Display aspect ratio : 16:9
Audio
ID : 2
Format : DTS
Format/Info : Digital Theater Systems
Format profile : ES
Codec ID : A_DTS
Duration : 2h 4mn
Bit rate mode : Constant
Bit rate : 755 Kbps
Channel(s) : 7 channels
Channel positions : Front: L C R, Rear: L C R, LFE
Sampling rate : 48.0 KHz
Resolution : 24 bits
Stream size : 672 MiB (35%)
Title : DTS 6ch
Language : Japanese

Скриншоты:


Кошачья благодарность / Neko no Ongaeshi / Cat’s Return
Описание:
В разгар дня на оживленной улице юная Хару храбро выхватывает из-под колес грузовика очаровательного кота. К ее великому удивлению, кот встает на задние лапки и благодарит Хару на человеческом языке. Оказывается, перед ней принц из загадочного Кошачьего царства, и теперь могущественный Кошачий царь хочет женить его на отважной спасительнице. Вскоре он похищает Хару, которая вовсе не желает быть кошачьей принцессой, и только верные усатые и хвостатые друзья - толстый бродяга Мьюта и великолепный Барон смогут вызволить ее из кошачьего плена. Впереди их ждут неожиданные встречи и самые невероятные приключения в неведомом Царстве Кошек. Сумеет ли Хару найти дорогу домой?
Производство: Япония
Жанр: фэнтези, приключения
Тип: полнометражный фильм, 75 мин.
Премьера: 20.07.2002
Режиссёр: Морита Хироюки

Параметры рипа:

General
Complete name : [Henshin]_Neko_no_Ongaeshi_(x264_688x448_DTS).mkv
Format : Matroska
File size : 1.13 GiB
Duration : 1h 14mn
Overall bit rate : 2 162 Kbps
Encoded date : UTC 2008-12-27 06:55:57
Writing application : mkvmerge v2.4.1 ('Use Me') built on Dec 5 2008 18:30:05
Writing library : libebml v0.7.7 + libmatroska v0.8.1
Video
ID : 1
Format : AVC
Format/Info : Advanced Video Codec
Format profile : High@L3.1
Format settings, CABAC : Yes
Format settings, ReFrames : 14 frames
Muxing mode : Container profile=Unknown@3.1
Codec ID : V_MPEG4/ISO/AVC
Duration : 1h 14mn
Bit rate : 1 365 Kbps
Nominal bit rate : 1 400 Kbps
Width : 688 pixels
Height : 448 pixels
Display aspect ratio : 16:9
Audio
ID : 2
Format : DTS
Format/Info : Digital Theater Systems
Codec ID : A_DTS
Duration : 1h 14mn
Bit rate mode : Constant
Bit rate : 755 Kbps
Channel(s) : 6 channels
Channel positions : Front: L C R, Surround: L R, LFE
Sampling rate : 48.0 KHz
Resolution : 16 bits
Stream size : 405 MiB (35%)
Title : DTS 6ch
Language : Japanese

Скриншоты:


Ходячий замок / Howl no Ugoku Shiro / Howl's Moving Castle
Описание:
Действие фильма происходит в сказочном мире, напоминающем Европу 19-го века, где магия идёт рука об руку с техническим прогрессом. Скромная жизнь рано осиротевшей шляпницы Софи полностью изменилась, когда в окрестностях её города появился шагающий замок таинственного волшебника Хаула, известного своими "похищениями" девичьих сердец. Спасённая этим голубоглазым красавцем от приставаний двух солдафонов, она полюбила его с первого взгляда, однако волнующая прогулка с ним стоила юной шляпнице её красоты и молодости, отнятых чарами ревнивой Ведьмы из Пустоши. Шокирующее превращение из восемнадцатилетней девушки в дряхлую старуху заставило Софи покинуть родной дом и отправиться на поиски заколдовавшей её Ведьмы, чтобы та вернула ей нормальный вид. Попав по дороге внутрь шагающего замка Хаула, девушка-старушка осталась жить с хозяином и другими обитателями этого гигантского сооружения на курьих ножках, обретя в них семью, а взамен подарив им тепло и мудрость своего любящего сердца...
Производство: Япония
Жанр: фэнтези, приключения, романтика, драма
Тип: полнометражный фильм, 119 мин.
Премьера: 20.11.2004
Режиссёр: Миядзаки Хаяо

Параметры рипа:

General
Complete name : [Henshin]_Howl_no_Ugoku_Shiro_(x264_688x448_DTS).mkv
Format : Matroska
File size


Последний раз редактировалось: Kalrel (2010-06-07 19:57), всего редактировалось 1 раз
[Профиль]  [ЛС] 

RRRRR(Дубль)

Стаж: 10 лет

Сообщений: 642

Откуда: Камышин

Репутация: 0

Торрент-статистика

Пост 28-Дек-2009 01:05 (спустя 7 часов)

[Цитировать] 

А Поньо на R2 до сих пор не выходил?
Раздача хороша, но на Гибли, лично мне, денег не жаль, собираю коллекцию в лицензии, правда в русской ))

_________________
[Профиль]  [ЛС] 

Kalrel

Стаж: 10 лет

Сообщений: 3429

Репутация: 50.1
голосов: 75

Торрент-статистика

Пост 28-Дек-2009 08:34 (спустя 7 часов)

[Цитировать] 

RRRRR(Дубль)
Поньо пока нет ДВД или блюрей образа в сети.
А в русской лицензии от Русико вышло всего 8 вещей, в ужасающей качестве. От их версии "Навсикайи" меня до сих под в дрожь бросает. :(
[Профиль]  [ЛС] 

Kalrel

Стаж: 10 лет

Сообщений: 3429

Репутация: 50.1
голосов: 75

Торрент-статистика

Пост 28-Дек-2009 10:55 (спустя 2 часа 21 минута)

[Цитировать] 

Ujif Dtkbrjktgysq NEW !
Я с ними имел дело когда в "Океане" показ с минифестом делали. Это был кошмар по картинке. Хотя была даже не лицензия, а именно для кинотеатров для рекламы. Больше я вещи от Русико в руки не возьму. Даже, если они лучше стали.
[Профиль]  [ЛС] 

ben.rider

Стаж: 7 лет

Сообщений: 1

Репутация: 0

Торрент-статистика

Пост 07-Янв-2011 23:06 (спустя 1 год)

[Цитировать] 

И как скачать торрент?
Как я понимаю видео с оригинала?
[Профиль]  [ЛС] 

Demigod

Стаж: 8 лет 8 месяцев

Сообщений: 4079

Откуда: Голодрище :-)

Провайдер: PowerNet

Репутация: 4.7
голосов: 19

Торрент-статистика

Пост 07-Янв-2011 23:46 (спустя 39 минут)

[Цитировать] 

к сожалению скачать не удастся...можете посмотреть данный релиз на тотошке

_________________
д'Me-Got
[Профиль]  [ЛС] 
Показать сообщения:    
Ответить на тему

Текущее время: Сегодня 18:12

Часовой пояс: GMT + 4



Вы не можете начинать темы
Вы не можете отвечать на сообщения
Вы не можете редактировать свои сообщения
Вы не можете удалять свои сообщения
Вы не можете голосовать в опросах
Вы не можете прикреплять файлы к сообщениям
Вы можете скачивать файлы
!