Тот, кто меня бережёт / Dare mo mamotte kurenai (Рюйчи Кимизука) [2008 г., драма, DVDRip-AVC]

Ответить на тему
Статистика раздачи
Нет
 
 
 
 
Автор Сообщение

CØNSUL

Стаж: 10 лет

Сообщений: 3154

Откуда: из тех ворот, аткель народ прёт

Репутация: 0.7
голосов: 6

Торрент-статистика

Пост 26-Ноя-2011 01:53

[Цитировать] 

Тот, кто меня бережёт
Dare mo mamotte kurenai
Nobody Тo Watch Over Me
-Оригинальное название: Dare mo mamotte kurenai
Год выпуска: 2008
Жанр: драма, криминал
Страна: Япония
Режиссер: Рюйчи Кимизука
Продюссер: Чихиро Камеяма, Ryichi Shimatani, Shigemichi Sugita
Сценарий: Рюйчи Кимизука, Сатоси Судзуки
В ролях: Коити Сато, Коити Сато, Мираи Шида, Мираи Шида, Рюхэй Мацуда, Рюхэй Мацуда, Юрико Ишида, Юрико Ишида, Кураносуке Сасаки, Кураносуке Сасаки, Широ Сано, Широ Сано, Кандзи Цуда, Кандзи Цуда, Йошино Кимура, Йошино Кимура, Тоширо Янагиба, Тоширо Янагиба, Такахиро Азума, Такахиро Азума- -Премьера: 31 августа 2008-Перевод: Любительский двухголосый, оригинальная дорожка присутствует-Релиз: -Озвучивавют: Alice & Ustas Alexis-Субтитры: Отсутствуют-Описание: 15-летняя школьница попадает под опеку полицейского, в связи с арестом её брата по подозрению в убийстве двух девочек, учениц начальной школы. Хотя её и охраняют от самосуда общественности, она не может найти общий язык с полицейским, охраняющим её. Глазами двух главных героев, мы видим уязвимость, одиночество и способность противостоять давлению изменчивого и часто нетерпимого общества.-Продолжительность: 01:58:30-Качество: DVDRip-AVC
Формат: MKV
Видео кодек: H.26x
Аудио кодек: AC3
Видео: h.264, 720x468@853x468, 23.976 fps, ~1261 kbps
Аудио #1: AC3 2.0, 48 kHz, 224 kbps
Аудио #2: AC3 2.0, 48 kHz, 224 kbps -Медиа-Инфо:

подробно


Nobody.to.Watch.Over.Me.2008.DVDRip.480p.GreenTea.mkv
General
Complete name :Nobody.to.Watch.Over.Me.2008.DVDRip.480p.GreenTea.mkv
Format : Matroska
File size : 1.42 GiB
Duration : 1h 58mn
Overall bit rate : 1 710 Kbps
Movie name : Nobody to Watch Over Me / Òîò, êòî ìåíÿ áåðåæåò (2008)
Encoded date : UTC 2011-07-31 11:47:54
Writing application : mkvmerge v4.9.1 ('Ich will') ñáîðêà îò Jul 11 2011 23:53:15
Writing library : libebml v1.2.1 + libmatroska v1.1.1
Video #1
ID : 1
Format : AVC
Format/Info : Advanced Video Codec
Format profile : High@L4.1
Format settings, CABAC : Yes
Format settings, ReFrames : 7 frames
Muxing mode : Container profile=Unknown@4.1
Codec ID : V_MPEG4/ISO/AVC
Duration : 1h 58mn
Bit rate : 1 261 Kbps
Width : 720 pixels
Height : 468 pixels

Display aspect ratio : 16:9
Original display aspect ratio : 1.870
Frame rate : 23.976 fps
Color space : YUV
Chroma subsampling : 4:2:0
Bit depth : 8 bits
Scan type : Progressive
Bits/(Pixel*Frame) : 0.156
Stream size : 1.02 GiB (72%)
Title : Nobody.to.Watch.Over.Me.N_JKE
Writing library : x264 core 115 r1995 c1e60b9
Encoding settings : cabac=1 / ref=7 / deblock=1:-1:-1 / analyse=0x3:0x133 / me=esa / subme=9 / psy=1 / psy_rd=1.00:0.00 / mixed_ref=1 / me_range=32 / chroma_me=1 / trellis=2 / 8x8dct=1 / cqm=0 / deadzone=21,11 / fast_pskip=0 / chroma_qp_offset=-2 / threads=6 / sliced_threads=0 / nr=0 / decimate=1 / interlaced=0 / bluray_compat=0 / constrained_intra=0 / bframes=10 / b_pyramid=2 / b_adapt=2 / b_bias=0 / direct=2 / weightb=1 / open_gop=0 / weightp=2 / keyint=250 / keyint_min=23 / scenecut=40 / intra_refresh=0 / rc_lookahead=80 / rc=2pass / mbtree=1 / bitrate=1261 / ratetol=2.0 / qcomp=0.40 / qpmin=10 / qpmax=69 / qpstep=4 / cplxblur=20.0 / qblur=0.5 / vbv_maxrate=2500 / vbv_bufsize=2000 / nal_hrd=none / ip_ratio=1.40 / aq=1:1.00
Audio #2
ID : 2
Format : AC-3
Format/Info : Audio Coding 3
Mode extension : CM (complete main)
Codec ID : A_AC3
Duration : 1h 58mn
Bit rate mode : Constant
Bit rate : 224 Kbps
Channel(s) : 2 channels
Channel positions : Front: L R
Sampling rate : 48.0 KHz
Bit depth : 16 bits
Stream size : 190 MiB (13%)
Title : Русский любительский закадровый перевод [GREEN TEA \ Alice & Ustas Alexis]
Language : Russian
Audio #3
ID : 3
Format : AC-3
Format/Info : Audio Coding 3
Mode extension : CM (complete main)
Codec ID : A_AC3
Duration : 1h 58mn
Bit rate mode : Constant
Bit rate : 224 Kbps
Channel(s) : 2 channels
Channel positions : Front: L R
Sampling rate : 48.0 KHz
Bit depth : 16 bits
Stream size : 190 MiB (13%)
Title : ßïîíñêèé îðèãèíàë
Language : Japanese
-

Cемпл

http://multi-up.com/530893 (не проверял)
-

Скриншоты


-От Консул: Глубокий фильм. Очень понравился. Многих "вещей" из фильма у нас еще долго не будет. Еще девочка-актрисса-гг молодец. Понравилась озвучка
[Профиль]  [ЛС] 

ПИПЕЦ

Стаж: 7 лет 2 месяца

Сообщений: 2825

Откуда: От Ленина: Учиться Учиться Учиться!!!

Провайдер: ЙУТЫКА

Репутация: 3.3
голосов: 21

Торрент-статистика

Пост 26-Ноя-2011 12:29 (спустя 10 часов)

[Цитировать] 

CØNSUL,
bm ояпониваешься?
Лаер гейм видел?
ещё чёнить японско интересное имеется?

_________________
31,05,2013 С первой пломбой меня ^_^ в августе ещё 3 будут эх... грусть печаль ^______^
[Профиль]  [ЛС] 

CØNSUL

Стаж: 10 лет

Сообщений: 3154

Откуда: из тех ворот, аткель народ прёт

Репутация: 0.7
голосов: 6

Торрент-статистика

Пост 26-Ноя-2011 13:15 (спустя 46 минут)

[Цитировать] 

Гоша, нет, я обмирокультуриваюсь. Ибо смотрю еще и корейское и новоиндийское и т.п.
...
Кстати, трейлер
[Профиль]  [ЛС] 

ПИПЕЦ

Стаж: 7 лет 2 месяца

Сообщений: 2825

Откуда: От Ленина: Учиться Учиться Учиться!!!

Провайдер: ЙУТЫКА

Репутация: 3.3
голосов: 21

Торрент-статистика

Пост 26-Ноя-2011 14:12 (спустя 56 минут)

[Цитировать] 

дел

_________________
31,05,2013 С первой пломбой меня ^_^ в августе ещё 3 будут эх... грусть печаль ^______^
[Профиль]  [ЛС] 

CØNSUL

Стаж: 10 лет

Сообщений: 3154

Откуда: из тех ворот, аткель народ прёт

Репутация: 0.7
голосов: 6

Торрент-статистика

Пост 26-Ноя-2011 14:47 (спустя 35 минут)

[Цитировать] 

Гоша, я вот боюсь по поводу тебя что ты скоро русский перестанешь понимать.
Пишешь с ашипками, из института читай вылетел... Куда тебе еще иппонский? я так понял место в голове ограничено...
[Профиль]  [ЛС] 

ПИПЕЦ

Стаж: 7 лет 2 месяца

Сообщений: 2825

Откуда: От Ленина: Учиться Учиться Учиться!!!

Провайдер: ЙУТЫКА

Репутация: 3.3
голосов: 21

Торрент-статистика

Пост 26-Ноя-2011 15:02 (спустя 14 минут)

[Цитировать] 

дел

_________________
31,05,2013 С первой пломбой меня ^_^ в августе ещё 3 будут эх... грусть печаль ^______^
[Профиль]  [ЛС] 

serokuz74

Стаж: 9 лет 4 месяца

Сообщений: 1451

Откуда: г.Волгоград. Красноармейский р-н.

Провайдер: Ростелеком (ЮТК)

Репутация: 25.1
голосов: 42

Торрент-статистика

Пост 26-Ноя-2011 16:11 (спустя 1 час 9 минут)

[Цитировать] 

ПИПЕЦ, делаю устное замечание... доходчиво? Или мне попросить восстановить систему наказаний, могу конечно и просто «почикать» все сообщения? Далее, я уже намекал, чтобы Вы не комментировали собеседника по беседе на форуме... минимум некрасиво... И вопрос от «тугодума»... Уважаемый ПИПЕЦ, Вы «забили» на модераторов?
CØNSUL(у), РЕСПЕКТ...

_________________

[Профиль]  [ЛС] 

serokuz74

Стаж: 9 лет 4 месяца

Сообщений: 1451

Откуда: г.Волгоград. Красноармейский р-н.

Провайдер: Ростелеком (ЮТК)

Репутация: 25.1
голосов: 42

Торрент-статистика

Пост 26-Ноя-2011 16:22 (спустя 10 минут)

[Цитировать] 

Зы... кстати, заметил за Вами одну особенность уважаемый ПИПЕЦ, Вам даже элементарное спасибо трудно нажать, но оставить свои комменты везде и повсюду крайне необходимо, как и пофлудить... Поэтому советую перечитать графу Правила комментирования торрентов
Система комментариев торрентов создана для того чтобы:
1. высказать свое уважение и благодарность раздающему, посредством нажатия кнопки "СПАСИБО"
2. задать интересующий вас конкретный технический вопрос относительно раздачи или релиза,
3. сообщить интересную информацию, относящуюся к раздаче.
Если вы не намерены подключаться к раздаче, не комментируйте ее.
Никакого другого языка кроме литературного русского в комментариях.
Запрещены флейм и флуд.
Помните, раздачи на нашем трекере ни в коей мере не предназначены для удовлетворения ваших личных запросов: если вам не нравится раздача, попробуйте поискать что-либо подходящее вам в другом месте.

_________________

[Профиль]  [ЛС] 

CØNSUL

Стаж: 10 лет

Сообщений: 3154

Откуда: из тех ворот, аткель народ прёт

Репутация: 0.7
голосов: 6

Торрент-статистика

Пост 26-Ноя-2011 20:10 (спустя 3 часа)

[Цитировать] 

serokuz74, ты доформил релиз?
Спасибо!
[Профиль]  [ЛС] 
Показать сообщения:    
Ответить на тему

Текущее время: Сегодня 10:23

Часовой пояс: GMT + 4



Вы не можете начинать темы
Вы не можете отвечать на сообщения
Вы не можете редактировать свои сообщения
Вы не можете удалять свои сообщения
Вы не можете голосовать в опросах
Вы не можете прикреплять файлы к сообщениям
Вы можете скачивать файлы
!