Теория Большого Взрыва [5 Сезон/ Серии 1-11 (24)] / The Big Bang Theory (Чак Лорри) [2011 г., Ситком, WEB-DLRip]

Ответить на тему
Статистика раздачи
Нет
 
 
 
 
Автор Сообщение

Kalrel

Стаж: 10 лет

Сообщений: 3429

Репутация: 50.1
голосов: 75

Торрент-статистика

Пост 02-Окт-2011 10:44

[Цитировать] 

Теория Большого Взрыва [5 Сезон/ Серии 1-10 (24)] / The Big Bang Theory
Год выпуска: 2011
Страна: США
Жанр: Ситком
Продолжительность: 00:22:00
Перевод: Профессиональный (одноголосый)
Режиссер: Чак Лорри
В ролях: Джонни Галаки, Джим Парсонс, Кейли Куоко, Саймон Хелберг, Кунал Найар, Сара Гилберт
Описание: Два блестящих физика, Леонард и Шелдон, «великие умы», которые понимают как «работает вселенная». Но их гениальность ничуть не помогает им общаться с людьми, особенно с женщинами. Всё начинает меняться, когда напротив них поселяется красавица Пенни. Когда Леонард и Шелдон встречают Пенни, Леонард сразу же начинает интересоваться ею. Он видит в общении с Пенни огромную перспективу… вплоть до любви, однако Шелдон понимает, что мечтам его друга не суждено сбыться. Стоит также отметить пару странных друзей этих физиков: Воловиц, который любит употреблять фразы на разных языках, включая русский, и Раджеш Кутраппали, теряющий дар речи при виде женщин.
Качество: WEB-DLRip
Видео: 656x368 (1.78:1), 23.976 fps, XviD, ~1211 kbps, 0.209 bit/pixel
Аудио #1: 48 kHz, 2 ch, ~128 Kbps avg (CBR) | Русский, одноголосый (Кураж-Бамбей)
Аудио #2: 48 kHz, 2 ch, ~128 Kbps avg (CBR) | Английский, оригинальная дорожка

MediaInfo

GeneralFormat : AVI
Format/Info : Audio Video Interleave
File size : 210 MiB
Duration : 19mn 50s
Overall bit rate : 1 479 Kbps
Writing application : VirtualDubMod 1.5.10.2 (build 2542/release)
Writing library : VirtualDubMod build 2542/release
Video
ID : 0
Format : MPEG-4 Visual
Format profile : Advanced Simple@L5
Format settings, BVOP : Yes
Format settings, QPel : No
Format settings, GMC : No warppoints
Format settings, Matrix : Custom
Codec ID : XVID
Codec ID/Hint : XviD
Duration : 19mn 50s
Bit rate : 1 209 Kbps
Width : 656 pixels
Height : 368 pixels
Display aspect ratio : 16:9
Frame rate : 23.976 fps
Color space : YUV
Chroma subsampling : 4:2:0
Bit depth : 8 bits
Scan type : Progressive
Bits/(Pixel*Frame) : 0.209
Stream size : 172 MiB (82%)
Writing library : XviD 72
Audio #1
ID : 1
Format : MPEG Audio
Format version : Version 1
Format profile : Layer 3
Mode : Joint stereo
Mode extension : MS Stereo
Codec ID : 55
Codec ID/Hint : MP3
Duration : 19mn 50s
Bit rate mode : Constant
Bit rate : 128 Kbps
Channel(s) : 2 channels
Sampling rate : 48.0 KHz
Stream size : 18.2 MiB (9%)
Alignment : Aligned on interleaves
Interleave, duration : 42 ms (1.00 video frame)
Interleave, preload duration : 504 ms
Audio #2
ID : 2
Format : MPEG Audio
Format version : Version 1
Format profile : Layer 3
Mode : Joint stereo
Mode extension : MS Stereo
Codec ID : 55
Codec ID/Hint : MP3
Duration : 19mn 50s
Bit rate mode : Constant
Bit rate : 128 Kbps
Channel(s) : 2 channels
Sampling rate : 48.0 KHz
Stream size : 18.2 MiB (9%)
Alignment : Aligned on interleaves
Interleave, duration : 42 ms (1.00 video frame)
Interleave, preload duration : 504 ms

Скриншоты








Последний раз редактировалось: Kalrel (2011-12-20 19:09), всего редактировалось 13 раз(а)
[Профиль]  [ЛС] 

Demigod

Стаж: 8 лет 8 месяцев

Сообщений: 4079

Откуда: Голодрище :-)

Провайдер: PowerNet

Репутация: 4.7
голосов: 19

Торрент-статистика

Пост 02-Окт-2011 11:28 (спустя 43 минуты)

[Цитировать] 

Чёт какое то не смешное начало нового сезона

_________________
д'Me-Got
[Профиль]  [ЛС] 

Kalrel

Стаж: 10 лет

Сообщений: 3429

Репутация: 50.1
голосов: 75

Торрент-статистика

Пост 04-Окт-2011 09:55 (спустя 1 день 22 часа)

[Цитировать] 

Добавлена 3 серия
[Профиль]  [ЛС] 

Kalrel

Стаж: 10 лет

Сообщений: 3429

Репутация: 50.1
голосов: 75

Торрент-статистика

Пост 11-Окт-2011 22:34 (спустя 7 дней)

[Цитировать] 

Добавлена 4 серия
[Профиль]  [ЛС] 

Kalrel

Стаж: 10 лет

Сообщений: 3429

Репутация: 50.1
голосов: 75

Торрент-статистика

Пост 18-Окт-2011 08:16 (спустя 6 дней)

[Цитировать] 

Добавлена 5 серия
[Профиль]  [ЛС] 

CØNSUL

Стаж: 10 лет

Сообщений: 3154

Откуда: из тех ворот, аткель народ прёт

Репутация: 0.7
голосов: 6

Торрент-статистика

Пост 25-Окт-2011 21:08 (спустя 7 дней)

[Цитировать] 

Смотрю, доставляет
[Профиль]  [ЛС] 

Kalrel

Стаж: 10 лет

Сообщений: 3429

Репутация: 50.1
голосов: 75

Торрент-статистика

Пост 08-Ноя-2011 10:01 (спустя 13 дней)

[Цитировать] 

Добавлена 8 серия
[Профиль]  [ЛС] 

Kalrel

Стаж: 10 лет

Сообщений: 3429

Репутация: 50.1
голосов: 75

Торрент-статистика

Пост 15-Ноя-2011 13:02 (спустя 7 дней)

[Цитировать] 

Добавлена 9 серия
[Профиль]  [ЛС] 

Kalrel

Стаж: 10 лет

Сообщений: 3429

Репутация: 50.1
голосов: 75

Торрент-статистика

Пост 23-Ноя-2011 15:03 (спустя 8 дней)

[Цитировать] 

Добавлена 10 серия
[Профиль]  [ЛС] 

Kalrel

Стаж: 10 лет

Сообщений: 3429

Репутация: 50.1
голосов: 75

Торрент-статистика

Пост 20-Дек-2011 19:10 (спустя 27 дней)

[Цитировать] 

Добавлена 11 серия. С большим опозданием но все же :)
[Профиль]  [ЛС] 
Показать сообщения:    
Ответить на тему

Текущее время: Сегодня 13:44

Часовой пояс: GMT + 4



Вы не можете начинать темы
Вы не можете отвечать на сообщения
Вы не можете редактировать свои сообщения
Вы не можете удалять свои сообщения
Вы не можете голосовать в опросах
Вы не можете прикреплять файлы к сообщениям
Вы можете скачивать файлы
!