Холостые выстрелы / Mine vaganti (Ферзан Озпетек) [2010 г., драма, мелодрама, комедия, ..., HDRip] [Лицензия]

Тема закрыта
Статистика раздачи
Скачали: [ 2 ]
 
 
 
 
Автор Сообщение

SUNEXE

Стаж: 8 лет 9 месяцев

Сообщений: 50

Провайдер: 4

Репутация: -58.8
голосов: 1

Торрент-статистика

Пост 10-Авг-2011 22:35

[Цитировать] 

-- Холостые выстрелы / Mine vaganti Год выпуска: 2010
Страна: Италия
Жанр: драма, мелодрама, комедия, ...
Продолжительность: 01:52:32
Перевод: Профессиональный (многоголосый, закадровый) [Лицензия]-Режиссер: Ферзан Озпетек-В ролях: Риккардо Скамарчио, Николь Гримаудо, Алессандро Прециози, Эннио Фантастичини, Елена София Риччи, Бьянка Наппи, Даниэле Печчи, Каролина Крешентини-Описание: Члены большого и суматошного семейства Кантоне — отец, мать, в высшей степени эксцентричная тетя Лучиана, Томмасо, его сестра Элена и старший брат Антонио — собрались на торжественном обеде, чтобы отметить назначение Антонио главой семейного бизнеса. Томмасо решает воспользоваться случаем, чтобы рассказать наконец родным о том, что он гей, но его старший брат неожиданно опережает его, сообщив всем собравшимся аналогичную новость.
Разъяренный отец со скандалом выгоняет Антонио из дома и в результате нервного потрясения попадает в больницу. Бразды правления семейным предприятием неожиданно переходят к Томмасо. И хотя это совсем не та жизнь, о которой мечтал юноша, он не может рассказать об этом семье, боясь за здоровье отца. Какое-то время ему удается скрывать от родных правду, но все меняет неожиданный приезд его старых друзей.
-Качество: HDRip
Формат: AVI
Видео кодек: XviD
Аудио кодек: AC3
Видео: 720x304 (2.37:1), 23.976 fps, XviD build 50 ~1279 kbps avg, 0.24 bit/pixel
Аудио: 48 kHz, AC3 Dolby Digital, 3/2 (L,C,R,l,r) + LFE ch, ~448.00 kbps avg-

MediaInfo

F:\Download\vgtorrent\Mine vaganti.[vgtorrent.ru].avi
General
Complete name : F:\Download\vgtorrent\Mine vaganti.[vgtorrent.ru].avi
Format : AVI
Format/Info : Audio Video Interleave
File size : 1.37 GiB
Duration : 1h 52mn
Overall bit rate : 1 737 Kbps
Movie name : Holostye.vystrely.2010.P.HDRip.ELEKTRI4KA
Director : ELEKTRO-Am
Writing application : VirtualDubMod 1.5.10.3 | www.virtualdub-fr.org || (build 2550/release)
Copyright : ELEKTRI4KA
Video #0
ID : 0
Format : MPEG-4 Visual
Format profile : AdvancedSimple@L5
Format settings, BVOP : Yes
Format settings, QPel : No
Format settings, GMC : No warppoints
Format settings, Matrix : Custom
Codec ID : XVID
Codec ID/Hint : XviD
Duration : 1h 52mn
Bit rate : 1 280 Kbps
Width : 720 pixels
Height : 304 pixels
Display aspect ratio : 2.35:1
Frame rate : 23.976 fps
Resolution : 24 bits
Colorimetry : 4:2:0
Scan type : Progressive
Bits/(Pixel*Frame) : 0.244
Stream size : 1.01 GiB (74%)
Writing library : XviD 1.2.1 (UTC 2008-12-04)
Audio #1
ID : 1
Format : AC-3
Format/Info : Audio Coding 3
Codec ID : 2000
Duration : 1h 52mn
Bit rate mode : Constant
Bit rate : 448 Kbps
Channel(s) : 6 channels
Channel positions : Front: L C R, Surround: L R, LFE
Sampling rate : 48.0 KHz
Stream size : 361 MiB (26%)
Alignment : Split accross interleaves
Interleave, duration : 42 ms (1.00 video frame)
Interleave, preload duration : 500 ms

Скриншоты





[Профиль]  [ЛС] 

Пост 11-Авг-2011 08:29 (спустя 9 часов)

Топик был перенесен из форума Фильмы 2010 (новинки) в форум Фильмографии (Авторское кино)

serokuz74
 
Показать сообщения:    
Тема закрыта

Текущее время: Сегодня 21:58

Часовой пояс: GMT + 4



Вы не можете начинать темы
Вы не можете отвечать на сообщения
Вы не можете редактировать свои сообщения
Вы не можете удалять свои сообщения
Вы не можете голосовать в опросах
Вы не можете прикреплять файлы к сообщениям
Вы можете скачивать файлы
!