Физика или химия / Серии 1-20 из 20 (Рамиль Сабитов) [2011 г., Молодёжный сериал, IPTVRip]

Ответить на тему
Статистика раздачи
Нет
 
 
 
 
Автор Сообщение

AlZu

Стаж: 8 лет 11 месяцев

Сообщений: 167

Откуда: Камышин

Провайдер: 10

Репутация: 4.2
голосов: 4

Торрент-статистика

Пост 02-Окт-2011 10:37

[Цитировать] 

--Физика или химия / Серии 1-20 из 20-- Год выпуска: 2011-Производство: Россия, Костафильм-Жанр: Молодёжный сериал-Продолжительность: 1-я серия 01:00:35, 18 серий по ~ 46 минут, 20-я серия 00:58:16-Субтитры: нет--Режиссёр: Рамиль Сабитов--В ролях: Виктория Полторак, Мария Викторова, Александр Лучинин, Сергей Годин, Анна Невская, Любовь Германова, Александр Смирнов--Описание: Каникулы закончились, начинается новый учебный год. Новые предметы, новые горизонты, новые надежды. А у 10 Б класса еще и сразу четыре новых учителя!Ирина познакомилась на вечеринке с парнем, провела с ним ночь, а на первом уроке в школе узнала, что это ее ученик. Лада еще вчера думала, что умеет обращаться с детьми, но в первый же день выгнала из класса сразу троих. Рик сам больше похож на старшеклассника, его вообще никто не воспринимает как учителя, в особенности отец — завуч этой школы. Спортсмен и красавец Евгений, наоборот, нравится всем, вот только проблем от этого еще больше.Они молоды и неопытны, и пока еще совсем чужие и для учеников, и для коллег. Каждую минуту: по дороге на работу, в классе, в учительской — они должны делать выбор. Стать другом или только коллегой, спорить или подчиняться, быть «своим в доску» или сохранять дистанцию, учить или учиться?В знакомой каждому обстановке, на фоне диктантов, переменок, кроссов на 2 километра и служебных интрижек, разворачивается целая вселенная взаимоотношений, в которой проблемы молодого поколения иногда не подчиняются физическим законам, а ученики и преподаватели не раз меняются местами.Разум или чувства? Дружба или предательство? Любовь или секс? — Ответы в новом проекте «Физика или химия» на телеканале СТС!--Релиз: Shel
Качество: IPTVRip
Формат: AVI
Видео кодек: XviD
Аудио кодек: MP3
Видео: 704x400 (1.76:1), 25 fps, XviD MPEG-4 ~1445 kbps avg, 0.20 bit/pixel
Аудио: 48 kHz, MPEG Layer 3, 2 ch, ~128.00 kbps avg--

MI

Общее
Полное имя : G:\Fizika.ili.himiya.2011.XviD.IPTVRip.by.Shel\Fizika.ili.himiya.e01.2011.XviD.IPTVRip.by.Shel.avi
Формат : AVI
Формат/Информация : Audio Video Interleave
Размер файла : 664 Мбайт
Продолжительность : 1 ч. 0 м.
Общий поток : 1533 Кбит/сек
Программа кодирования : VirtualDubMod 1.5.10.2 (build 2540/release)
Библиотека кодирования : VirtualDub build 32842/release
Видео
Идентификатор : 0
Формат : MPEG-4 Visual
Профиль формата : Advanced Simple@L5
Параметр BVOP формата : 2
Параметр QPel формата : Нет
Параметр GMC формата : Без точки перехода
Параметр матрицы формата : Default (H.263)
Режим смешивания : Сжатый битовый поток
Идентификатор кодека : XVID
Идентификатор кодека/Подсказка : XviD
Продолжительность : 1 ч. 0 м.
Битрейт : 1395 Кбит/сек
Ширина : 704 пикс.
Высота : 400 пикс.
Соотношение сторон : 16:9
Частота кадров : 25,000 кадр/сек
Цветовое пространство : YUV
Подвыборка цветности : 4:2:0
Битовая глубина : 8 бит
Тип развёртки : Прогрессивная
Метод сжатия : С потерями
Бит/(Пиксели*Кадры) : 0.198
Размер потока : 605 Мбайт (91%)
Библиотека кодирования : XviD 1.2.1 (UTC 2008-12-04)
Аудио
Идентификатор : 1
Формат : MPEG Audio
Версия формата : Version 1
Профиль формата : Layer 3
Режим : Joint stereo
Расширение режима : MS Stereo
Идентификатор кодека : 55
Идентификатор кодека/Подсказка : MP3
Продолжительность : 1 ч. 0 м.
Вид битрейта : Постоянный
Битрейт : 128 Кбит/сек
Канал(ы) : 2 канала(ов)
Частота : 48,0 КГц
Метод сжатия : С потерями
Размер потока : 55,5 Мбайт (8%)
Выравнивание : Соединение по промежуткам
Продолжительность промежутка : 40 мс. (1,00 видеокадр)
Время предзагрузки промежутка : 504 ms
Общее
Полное имя : G:\Fizika.ili.himiya.2011.XviD.IPTVRip.by.Shel\Fizika.ili.himiya.e03.2011.XviD.IPTVRip.by.Shel.avi
Формат : AVI
Формат/Информация : Audio Video Interleave
Размер файла : 508 Мбайт
Продолжительность : 44 м.
Общий поток : 1583 Кбит/сек
Программа кодирования : VirtualDubMod 1.5.10.2 (build 2540/release)
Библиотека кодирования : VirtualDub build 32842/release
Видео
Идентификатор : 0
Формат : MPEG-4 Visual
Профиль формата : Advanced Simple@L5
Параметр BVOP формата : 2
Параметр QPel формата : Нет
Параметр GMC формата : Без точки перехода
Параметр матрицы формата : Default (H.263)
Режим смешивания : Сжатый битовый поток
Идентификатор кодека : XVID
Идентификатор кодека/Подсказка : XviD
Продолжительность : 44 м.
Битрейт : 1445 Кбит/сек
Ширина : 704 пикс.
Высота : 400 пикс.
Соотношение сторон : 16:9
Частота кадров : 25,000 кадр/сек
Цветовое пространство : YUV
Подвыборка цветности : 4:2:0
Битовая глубина : 8 бит
Тип развёртки : Прогрессивная
Метод сжатия : С потерями
Бит/(Пиксели*Кадры) : 0.205
Размер потока : 464 Мбайт (91%)
Библиотека кодирования : XviD 1.2.1 (UTC 2008-12-04)
Аудио
Идентификатор : 1
Формат : MPEG Audio
Версия формата : Version 1
Профиль формата : Layer 3
Режим : Joint stereo
Расширение режима : MS Stereo
Идентификатор кодека : 55
Идентификатор кодека/Подсказка : MP3
Продолжительность : 44 м.
Вид битрейта : Постоянный
Битрейт : 128 Кбит/сек
Канал(ы) : 2 канала(ов)
Частота : 48,0 КГц
Метод сжатия : С потерями
Размер потока : 41,1 Мбайт (8%)
Выравнивание : Соединение по промежуткам
Продолжительность промежутка : 40 мс. (1,00 видеокадр)
Время предзагрузки промежутка : 504 ms
--

Скриншоты

--

_________________
[Профиль]  [ЛС] 

K@sht@n

Стаж: 8 лет 9 месяцев

Сообщений: 1861

Откуда: Столица!!!

Провайдер: 1

Репутация: 4.8
голосов: 10

Торрент-статистика

Пост 02-Окт-2011 14:41 (спустя 4 часа)

[Цитировать] 

Мне понравился сериал, жизненный так сказать...

_________________


Просидировать, пишите в ЛС!
[Профиль]  [ЛС] 

AlZu

Стаж: 8 лет 11 месяцев

Сообщений: 167

Откуда: Камышин

Провайдер: 10

Репутация: 4.2
голосов: 4

Торрент-статистика

Пост 02-Окт-2011 17:00 (спустя 2 часа 19 минут)

[Цитировать] 

K@sht@n
мне тоже))
но полная копия испанского сериала)))

_________________
[Профиль]  [ЛС] 

K@sht@n

Стаж: 8 лет 9 месяцев

Сообщений: 1861

Откуда: Столица!!!

Провайдер: 1

Репутация: 4.8
голосов: 10

Торрент-статистика

Пост 02-Окт-2011 18:51 (спустя 1 час 50 минут)

[Цитировать] 

Хотя б так bw

_________________


Просидировать, пишите в ЛС!
[Профиль]  [ЛС] 

Demigod

Стаж: 8 лет 8 месяцев

Сообщений: 4079

Откуда: Голодрище :-)

Провайдер: PowerNet

Репутация: 4.7
голосов: 19

Торрент-статистика

Пост 02-Окт-2011 21:10 (спустя 2 часа 18 минут)

[Цитировать] 

Мне понравился сериал, жизненный так сказать...
очень жизненно,когда ученик спит с училкой bj

_________________
д'Me-Got
[Профиль]  [ЛС] 

K@sht@n

Стаж: 8 лет 9 месяцев

Сообщений: 1861

Откуда: Столица!!!

Провайдер: 1

Репутация: 4.8
голосов: 10

Торрент-статистика

Пост 02-Окт-2011 23:19 (спустя 2 часа 8 минут)

[Цитировать] 

Demigod
Стопэ, я имел ввиду что проблемы нынешней России затронуты!
bu

_________________


Просидировать, пишите в ЛС!
[Профиль]  [ЛС] 

AlZu

Стаж: 8 лет 11 месяцев

Сообщений: 167

Откуда: Камышин

Провайдер: 10

Репутация: 4.2
голосов: 4

Торрент-статистика

Пост 03-Окт-2011 16:08 (спустя 16 часов)

[Цитировать] 

K@sht@n
и гомосексуализм?)))

_________________
[Профиль]  [ЛС] 

K@sht@n

Стаж: 8 лет 9 месяцев

Сообщений: 1861

Откуда: Столица!!!

Провайдер: 1

Репутация: 4.8
голосов: 10

Торрент-статистика

Пост 03-Окт-2011 16:32 (спустя 24 минуты)

[Цитировать] 

AlZu
О, а до такого я ещё не дошёл bk

_________________


Просидировать, пишите в ЛС!
[Профиль]  [ЛС] 

ПИПЕЦ

Стаж: 7 лет 1 месяц

Сообщений: 2825

Откуда: От Ленина: Учиться Учиться Учиться!!!

Провайдер: ЙУТЫКА

Репутация: 3.3
голосов: 21

Торрент-статистика

Пост 03-Окт-2011 21:08 (спустя 4 часа)

[Цитировать] 

Demigod
+100
Подобное по тв пустить... лучше б алхимика возобновили...
Стопэ, я имел ввиду что проблемы нынешней России затронуты!
Ода... если это то, что творится в рашке, то пора вешаться
и гомосексуализм?)))
В рекламе видел, или смотришь то что выкладываешь? :)

_________________
31,05,2013 С первой пломбой меня ^_^ в августе ещё 3 будут эх... грусть печаль ^______^
[Профиль]  [ЛС] 

AlZu

Стаж: 8 лет 11 месяцев

Сообщений: 167

Откуда: Камышин

Провайдер: 10

Репутация: 4.2
голосов: 4

Торрент-статистика

Пост 03-Окт-2011 21:51 (спустя 42 минуты)

[Цитировать] 

ПИПЕЦ
лично я смотрю данный сериал. мне нравится.

_________________
[Профиль]  [ЛС] 

ПИПЕЦ

Стаж: 7 лет 1 месяц

Сообщений: 2825

Откуда: От Ленина: Учиться Учиться Учиться!!!

Провайдер: ЙУТЫКА

Репутация: 3.3
голосов: 21

Торрент-статистика

Пост 03-Окт-2011 22:13 (спустя 21 минута)

[Цитировать] 

лично я смотрю данный сериал. мне нравится.
ясно, замолкаю...

_________________
31,05,2013 С первой пломбой меня ^_^ в августе ещё 3 будут эх... грусть печаль ^______^
[Профиль]  [ЛС] 
Показать сообщения:    
Ответить на тему

Текущее время: Сегодня 13:39

Часовой пояс: GMT + 4



Вы не можете начинать темы
Вы не можете отвечать на сообщения
Вы не можете редактировать свои сообщения
Вы не можете удалять свои сообщения
Вы не можете голосовать в опросах
Вы не можете прикреплять файлы к сообщениям
Вы можете скачивать файлы
!