Сверхъестественное / Supernatural /Сезон: 7 /Серии: 1-10 (23)(Роберт Сингер) [2011 г., мистика, ужасы, драма, WEB-DLRip](LostFilm | Original) + rus sub(FarGate)

Ответить на тему
Статистика раздачи
Нет
 
 
 
 
Автор Сообщение

Kalrel

Стаж: 10 лет

Сообщений: 3429

Репутация: 50.1
голосов: 75

Торрент-статистика

Пост 27-Окт-2011 20:33

[Цитировать] 

Сверхъестественное / Supernatural-- Год выпуска: 2011
Страна: США
Жанр: мистика, ужасы, драма
Продолжительность: ~ 42 минуты
Перевод: Профессиональный (многоголосный закадровый) - LostFilm
Субтитры: Русские - Fargate-Режиссёр: Роберт Сингер-В ролях: Джаред Падалеки, Дженсен Эклс, Джим Бивер, Миша Коллинз, Джеффри Дин Морган, Женевьев Падалеки, Саманта Феррис, Курт Фуллер, Кэти Кэссиди, Лорен Коэн и др.-Описание: Сериал рассказывает о приключениях братьев Сэма и Дина Винчестеров, которые путешествуют по Соединённым Штатам на чёрном автомобиле Chevrolet Impala 1967 года, расследуют паранормальные явления, многие из которых основаны на американских городских легендах и фольклоре, и сражаются с порождениями зла, такими как демоны и призраки.-Качество: WEB-DLRip
Формат: AVI
Видео кодек: XviD
Аудио кодек: MP3
Видео: 720x400 (16:9), 23.976 fps, ~1200 kbps, ~0.17 bit/pixel
Аудио - Russian: 48 kHz, 2 ch, 192 kbps
Аудио - English: 48 kHz, 2 ch, 192 kbps-Релиз: &
Озвучка: Студия "Кравец"
Перевод: Fargate--«Встречайте нового босса / Meet the New Boss»
«Привет, жестокий мир! / Hello, Cruel World»
«The Girl Next Door»
«Защищая свою жизнь / Defending Your Life»

Скриншоты



MediaInfo

Общее
Полное имя : E:\Supernatural.s07.rus.Lostfilm\Supernatural.s07e01.rus.Lostfilm.TV.avi
Формат : AVI
Формат/Информация : Audio Video Interleave
Размер файла : 477 Мбайт
Продолжительность : 42 м.
Общий поток : 1561 Кбит/сек
Программа кодирования : VirtualDubMod 1.5.10.1 (build 2366/release)
Библиотека кодирования : VirtualDubMod build 2366/release
Видео
Идентификатор : 0
Формат : MPEG-4 Visual
Профиль формата : Simple@L3
Параметр BVOP формата : Нет
Параметр QPel формата : Нет
Параметр GMC формата : Без точки перехода
Параметр матрицы формата : Default (H.263)
Идентификатор кодека : XVID
Идентификатор кодека/Подсказка : XviD
Продолжительность : 42 м.
Битрейт : 1165 Кбит/сек
Ширина : 720 пикс.
Высота : 400 пикс.
Соотношение сторон : 16:9
Частота кадров : 23,976 кадр/сек
Цветовое пространство : YUV
Подвыборка цветности : 4:2:0
Битовая глубина : 8 бит
Тип развёртки : Прогрессивная
Метод сжатия : С потерями
Бит/(Пиксели*Кадры) : 0.169
Размер потока : 356 Мбайт (75%)
Библиотека кодирования : XviD 1.2.1 (UTC 2008-12-04)
Аудио #1
Идентификатор : 1
Формат : MPEG Audio
Версия формата : Version 1
Профиль формата : Layer 3
Режим : Joint stereo
Расширение режима : MS Stereo
Идентификатор кодека : 55
Идентификатор кодека/Подсказка : MP3
Продолжительность : 42 м.
Вид битрейта : Постоянный
Битрейт : 192 Кбит/сек
Каналы : 2 канала
Частота : 48,0 КГц
Метод сжатия : С потерями
Размер потока : 58,7 Мбайт (12%)
Выравнивание : Соединение по промежуткам
Продолжительность промежутка : 42 мс. (1,00 видеокадр)
Время предзагрузки промежутка : 504 ms
Библиотека кодирования : LAME3.90.3
Аудио #2
Идентификатор : 2
Формат : MPEG Audio
Версия формата : Version 1
Профиль формата : Layer 3
Режим : Joint stereo
Идентификатор кодека : 55
Идентификатор кодека/Подсказка : MP3
Продолжительность : 42 м.
Вид битрейта : Переменный
Битрейт : 192 Кбит/сек
Каналы : 2 канала
Частота : 48,0 КГц
Метод сжатия : С потерями
Размер потока : 56,8 Мбайт (12%)
Выравнивание : Соединение по промежуткам
Продолжительность промежутка : 24 мс. (0,58 видеокадр)
Время предзагрузки промежутка : 532 ms
Библиотека кодирования : LAME3.97b
Настройки программы : -m j -V 4 -q 3 -lowpass 18.6 --abr 192


Последний раз редактировалось: Kalrel (2011-12-08 20:24), всего редактировалось 3 раз(а)
[Профиль]  [ЛС] 

Kalrel

Стаж: 10 лет

Сообщений: 3429

Репутация: 50.1
голосов: 75

Торрент-статистика

Пост 14-Ноя-2011 22:00 (спустя 18 дней)

[Цитировать] 

Добавлены 6 и 7 серии
[Профиль]  [ЛС] 

Kalrel

Стаж: 10 лет

Сообщений: 3429

Репутация: 50.1
голосов: 75

Торрент-статистика

Пост 21-Ноя-2011 15:29 (спустя 6 дней)

[Цитировать] 

Добавлена 8 серия
[Профиль]  [ЛС] 

Kalrel

Стаж: 10 лет

Сообщений: 3429

Репутация: 50.1
голосов: 75

Торрент-статистика

Пост 30-Ноя-2011 14:26 (спустя 8 дней)

[Цитировать] 

Добавлена 9 серия
[Профиль]  [ЛС] 

Kalrel

Стаж: 10 лет

Сообщений: 3429

Репутация: 50.1
голосов: 75

Торрент-статистика

Пост 08-Дек-2011 20:24 (спустя 8 дней)

[Цитировать] 

Добавлена 10 серия
[Профиль]  [ЛС] 

alexyo777

Стаж: 6 лет

Сообщений: 1

Репутация: 0

Торрент-статистика

Пост 29-Дек-2011 18:52 (спустя 20 дней)

[Цитировать] 

когда 11 серия выйдет?
[Профиль]  [ЛС] 
Показать сообщения:    
Ответить на тему

Текущее время: Сегодня 13:41

Часовой пояс: GMT + 4



Вы не можете начинать темы
Вы не можете отвечать на сообщения
Вы не можете редактировать свои сообщения
Вы не можете удалять свои сообщения
Вы не можете голосовать в опросах
Вы не можете прикреплять файлы к сообщениям
Вы можете скачивать файлы
!