Маша и медведь: Фотография 9х12 (Олег Кузовков, Владислав Байрамгулов) [2013 г., Мультфильм, семейный, BDRip]

Ответить на тему
Статистика раздачи
Размер:  689 MB   |    Зарегистрирован:  4 года 1 месяц   |    Скачан:  0 раз
DL-List: Нет
Сидов:  456     Личеров:  41     Обновлено 4 года 1 месяц назад
 
   
 
 
Автор Сообщение

D.A

Стаж: 6 лет 10 месяцев

Сообщений: 131

Откуда: Волгоградская Обл...

Провайдер: 1

Репутация: -1

Торрент-статистика

Пост 17-Авг-2013 21:14

[Цитировать] 

Маша и медведь: Фотография 9х12 - Год выпуска: 2013
Жанр: Мультфильм, семейный
Серия: 34, Фотография 9х12
Страна: Россия
Режиссер: Олег Кузовков, Владислав Байрамгулов
В ролях: Алина Кукушкина, Эдуард Назаров, Борис Кутневич---Описание: Мультфильм о непоседливой Маше и Медведе. На этот раз Маша нашла старый фотоаппарат и начала массовую фотосъемку всех, кто ей попадался на пути. Но она сама не подозревала, чем это закончится-Продолжительность: 00:07:13-Качество: BDRip
Формат: MKV
Видео кодек: XviD
Аудио кодек: MP3
Видео: 12,8 Мбит/сек, 1920х1080
Аудио: MP3, 2 канала, 232 Кбит/сек
Перевод: Не требуется

Доп. информация

E:\мультики\Masha.i.medved.15.16\Маша и медведь. Фотография 9х12. Серия 34 (2013)_(1080).mkv
General
Complete name : E:\мультики\Masha.i.medved.15.16\Маша и медведь. Фотография 9х12. Серия 34 (2013)_(1080).mkv
Format : Matroska
File size : 689 MiB
Duration : 7mn 13s
Overall bit rate : 13.3 Mbps
Encoded date : UTC 2013-08-15 15:29:32
Writing application : mkvmerge v5.4.0 ('Piper') built on Mar 10 2012 13:34:39
Writing library : libebml v1.2.3 + libmatroska v1.3.0
Video #1
ID : 1
Format : MPEG-4 Visual
Format profile : Simple@L3
Format settings, BVOP : No
Format settings, QPel : No
Format settings, GMC : No warppoints
Format settings, Matrix : Default (H.263)
Codec ID : FMP4
Duration : 7mn 13s
Bit rate : 12.8 Mbps
Width : 1 920 pixels
Height : 1 080 pixels
Display aspect ratio : 16:9
Frame rate : 25.000 fps
Resolution : 24 bits
Colorimetry : 4:2:0
Scan type : Progressive
Bits/(Pixel*Frame) : 0.247
Stream size : 663 MiB (96%)
Writing library : XviD 1.2.0.dev45 (UTC 2006-07-10)
Audio #2
ID : 2
Format : MPEG Audio
Format version : Version 1
Format profile : Layer 3
Codec ID : A_MPEG/L3
Codec ID/Hint : MP3
Duration : 7mn 13s
Bit rate mode : Variable
Bit rate : 232 Kbps
Channel(s) : 2 channels
Sampling rate : 48.0 KHz
Resolution : 16 bits
Stream size : 12.0 MiB (2%)
-

Скриншоты






_________________

[Профиль]  [ЛС] 
Показать сообщения:    
Ответить на тему

Текущее время: Сегодня 10:14

Часовой пояс: GMT + 4



Вы не можете начинать темы
Вы не можете отвечать на сообщения
Вы не можете редактировать свои сообщения
Вы не можете удалять свои сообщения
Вы не можете голосовать в опросах
Вы не можете прикреплять файлы к сообщениям
Вы можете скачивать файлы
!